<?xml version="1.0" standalone="no"?>
<!DOCTYPE svg PUBLIC "-//W3C//DTD SVG 1.1//EN" "http://www.w3.org/Graphics/SVG/1.1/DTD/svg11.dtd" >
<svg xmlns="http://www.w3.org/2000/svg">
<metadata></metadata>
<defs>
<font id="dosismedium" horiz-adv-x="1144" >
<font-face units-per-em="2048" ascent="1638" descent="-410" />
<missing-glyph horiz-adv-x="409" />
<glyph unicode="&#xfb01;" horiz-adv-x="1073" d="M123 59v1090q0 78 30 151t85.5 130t142 91.5t190.5 34.5q122 0 223 -39.5t101 -93.5q0 -27 -19 -61.5t-45 -34.5q-12 0 -34 12.5t-46.5 27.5t-71.5 27.5t-104 12.5q-73 0 -129 -22t-88.5 -59t-48.5 -80.5t-16 -90.5v-184h246q24 0 38.5 -20t14.5 -48q0 -27 -14.5 -46 t-38.5 -19h-246v-779q0 -26 -26 -42.5t-62 -16.5t-59 16.5t-23 42.5zM782 61v850q0 26 23.5 43t58.5 17q37 0 62.5 -17t25.5 -43v-850q0 -24 -26 -42.5t-62 -18.5q-34 0 -58 18.5t-24 42.5z" />
<glyph unicode="&#xfb02;" horiz-adv-x="1091" d="M123 59v1090q0 124 67.5 218.5t173 141.5t228.5 47q102 0 202 -34.5t158 -100.5v-1360q0 -24 -25 -42.5t-61 -18.5q-35 0 -59.5 18.5t-24.5 42.5v1287q-75 69 -196 69q-117 0 -205 -71.5t-88 -190.5v-184h246q24 0 38.5 -20t14.5 -48q0 -27 -14.5 -46t-38.5 -19h-246 v-779q0 -26 -26 -42.5t-62 -16.5t-59 16.5t-23 42.5z" />
<glyph horiz-adv-x="0" />
<glyph horiz-adv-x="682" />
<glyph unicode="&#xd;" horiz-adv-x="0" />
<glyph unicode=" "  horiz-adv-x="409" />
<glyph unicode="&#x09;" horiz-adv-x="409" />
<glyph unicode="&#xa0;" horiz-adv-x="409" />
<glyph unicode="!" horiz-adv-x="428" d="M106 94q0 45 32 77t77 32q43 0 73.5 -32.5t30.5 -76.5q0 -42 -31 -74t-73 -32q-45 0 -77 32t-32 74zM121 1430q0 42 25.5 65t66.5 23q39 0 65.5 -23.5t26.5 -64.5q0 -158 -12 -507t-12 -509q0 -25 -22 -40.5t-46 -15.5q-28 0 -48 15t-20 41q0 160 -12 509t-12 507z" />
<glyph unicode="&#x22;" horiz-adv-x="571" d="M72 1522q0 22 22 36.5t51 14.5q28 0 52 -14.5t24 -36.5l-20 -297q0 -22 -15 -38t-41 -16q-27 0 -40 15.5t-13 38.5zM350 1522q0 22 22.5 36.5t51.5 14.5q28 0 52 -14.5t24 -36.5l-21 -297q0 -22 -14.5 -38t-40.5 -16q-27 0 -40 15.5t-13 38.5z" />
<glyph unicode="#" horiz-adv-x="1247" d="M49 563q0 29 14 48.5t37 19.5h217l50 305h-187q-57 0 -57 65q0 28 14 47t35 19h219l60 354q3 18 22 28.5t45 10.5q35 0 57.5 -18.5t22.5 -52.5l-53 -322h252l57 354q3 18 23 28.5t45 10.5q35 0 58.5 -18.5t23.5 -52.5l-54 -322h189q23 0 41 -19t18 -47q0 -27 -16 -46 t-37 -19h-217l-51 -305h188q23 0 41 -19.5t18 -48.5q0 -27 -16 -45t-37 -18h-219l-61 -387q-4 -19 -25.5 -32t-44.5 -13q-34 0 -59 18.5t-25 50.5l59 363h-247l-64 -385q-4 -21 -28 -34t-40 -13q-34 0 -57.5 18.5t-23.5 50.5l55 363h-185q-27 0 -42 16.5t-15 46.5zM473 631 h248l49 305h-248z" />
<glyph unicode="$" horiz-adv-x="1036" d="M72 236q0 32 23.5 63t51.5 31q15 0 34 -16t44 -39t57.5 -46.5t86 -41.5t118.5 -21v545q-41 14 -62 21.5t-58.5 23t-59 27.5t-52.5 31.5t-49 38.5t-39 46.5t-32 57t-18.5 67t-7.5 80.5q0 93 32.5 163t88.5 110.5t119.5 62.5t137.5 28v62q0 18 15.5 30.5t38.5 12.5 q20 0 36.5 -13t16.5 -30v-57q122 -5 223 -42t101 -94q0 -30 -21 -62t-53 -32q-15 0 -47 17t-85 36.5t-118 22.5v-467q63 -23 105.5 -42.5t95 -55t84 -78t53.5 -108t22 -146.5q0 -181 -97 -285t-263 -127v-73q0 -17 -16.5 -30t-36.5 -13q-23 0 -38.5 12.5t-15.5 30.5v67 q-177 3 -296 80.5t-119 151.5zM272 1120q0 -41 12.5 -74.5t30.5 -55.5t50.5 -42.5t60 -32.5t70.5 -28v430q-101 -10 -162.5 -57.5t-61.5 -139.5zM586 170q98 15 151.5 75.5t53.5 160.5q0 107 -53 166t-152 100v-502z" />
<glyph unicode="%" horiz-adv-x="1566" d="M74 948v307q0 125 71.5 183.5t192.5 58.5q119 0 191.5 -58.5t72.5 -183.5v-307q0 -125 -72.5 -183t-191.5 -58q-121 0 -192.5 58t-71.5 183zM197 948q0 -66 37 -99.5t104 -33.5t104 33.5t37 99.5v307q0 66 -37 100t-104 34t-104 -34t-37 -100v-307zM342 0q0 15 6 27 l768 1519q16 31 51 31q26 0 48 -20t22 -48q0 -13 -6 -28l-766 -1510q-14 -32 -57 -32q-28 0 -47 18t-19 43zM965 236v307q0 125 71.5 183t192.5 58q119 0 191.5 -58t72.5 -183v-307q0 -125 -72.5 -183.5t-191.5 -58.5q-121 0 -192.5 58.5t-71.5 183.5zM1087 236 q0 -66 37.5 -100t104.5 -34t104 34t37 100v307q0 66 -37 99.5t-104 33.5q-68 0 -105 -33.5t-37 -99.5v-307z" />
<glyph unicode="&#x26;" horiz-adv-x="1265" d="M61 420q0 142 78 247t195 162q-76 87 -118 167t-42 182q0 109 52.5 190.5t139.5 122.5t195 41q81 0 151 -23t112 -56.5t65.5 -68t23.5 -61.5q0 -32 -23.5 -56t-55.5 -24q-18 0 -35.5 15t-36 37t-42.5 44t-64 37t-91 15q-100 0 -160.5 -61t-60.5 -163q0 -48 15.5 -94 t51 -95.5t58.5 -76t72 -80.5l391 -426q58 132 63 346q2 33 18 47.5t58 14.5q41 0 57.5 -20.5t16.5 -65.5q0 -87 -25 -206.5t-82 -225.5l183 -195q14 -17 14 -35q0 -27 -25 -49t-55 -22q-23 0 -45 22l-156 164q-154 -190 -411 -190q-218 0 -350 128t-132 312zM236 434 q0 -128 87.5 -214.5t241.5 -86.5q188 0 285 146l-420 446q-39 -24 -67.5 -46.5t-60.5 -58t-49 -83t-17 -103.5z" />
<glyph unicode="'" horiz-adv-x="292" d="M72 1522q0 22 22 36.5t51 14.5q28 0 52 -14.5t24 -36.5l-20 -297q0 -22 -15 -38t-41 -16q-27 0 -40 15.5t-13 38.5z" />
<glyph unicode="(" horiz-adv-x="634" d="M117 317v869q0 162 119 274.5t278 112.5q43 0 63.5 -21t20.5 -55t-16.5 -56t-42.5 -22q-114 0 -182 -71t-68 -162v-869q0 -48 15.5 -85.5t40 -59.5t59 -35.5t67 -18.5t68.5 -5q59 0 59 -78q0 -76 -88 -76q-80 0 -150 22.5t-124.5 66t-86.5 113t-32 156.5z" />
<glyph unicode=")" horiz-adv-x="634" d="M37 35q0 78 59 78q36 0 68.5 5t66.5 19t58.5 35.5t40.5 59t16 85.5v869q0 91 -68 162t-182 71q-26 0 -42.5 22t-16.5 56q0 76 84 76q159 0 278 -112.5t119 -274.5v-869q0 -171 -114 -264.5t-281 -93.5q-48 0 -67 19.5t-19 56.5z" />
<glyph unicode="*" horiz-adv-x="897" d="M57 1200q0 27 20 48.5t48 21.5q10 0 18 -2l250 -86l-10 256q1 28 20.5 43.5t45.5 15.5q28 0 47 -15.5t20 -43.5l-10 -260l250 90q6 2 20 2q25 0 44.5 -23.5t19.5 -50.5q0 -45 -43 -57l-248 -68l162 -219q10 -13 10 -35q0 -29 -23 -48t-51 -19q-30 0 -47 24l-151 223 l-152 -225q-12 -22 -43 -22q-25 0 -50.5 18t-25.5 45q0 23 15 41l157 211l-250 74q-43 12 -43 61z" />
<glyph unicode="+" horiz-adv-x="882" d="M53 492q0 31 17 52t43 21h254v254q0 24 22 43t53 19t51.5 -19t20.5 -43v-254h254q24 0 42.5 -21.5t18.5 -51.5q0 -31 -18.5 -51.5t-42.5 -20.5h-254v-256q0 -26 -20 -43t-52 -17t-53.5 17t-21.5 43v256h-254q-26 0 -43 20t-17 52z" />
<glyph unicode="," horiz-adv-x="360" d="M74 94q0 45 30 77t74 32q43 0 75 -30.5t32 -78.5q0 -36 -88 -248q-11 -28 -45 -28q-22 0 -41 13.5t-19 35.5q0 14 4 22l43 107q-29 12 -47 39t-18 59z" />
<glyph unicode="-" horiz-adv-x="845" d="M96 492q0 31 16.5 52t43.5 21h532q24 0 43 -21.5t19 -51.5q0 -31 -19 -51.5t-43 -20.5h-532q-28 0 -44 19.5t-16 52.5z" />
<glyph unicode="." horiz-adv-x="360" d="M76 94q0 45 30.5 77t75.5 32q43 0 74 -32.5t31 -76.5q0 -42 -31.5 -74t-73.5 -32q-45 0 -75.5 32t-30.5 74z" />
<glyph unicode="/" horiz-adv-x="972" d="M39 0q0 19 6 27l768 1519q15 31 49 31q26 0 49 -20t23 -48q0 -15 -8 -28l-764 -1510q-14 -32 -58 -32q-29 0 -47 18t-18 43z" />
<glyph unicode="0" horiz-adv-x="1107" d="M113 434v617q0 119 33.5 206.5t94 139t138.5 76t174 24.5t174 -24.5t139.5 -75.5t95 -139t33.5 -207v-617q0 -119 -33.5 -207t-95 -139t-139.5 -75.5t-174 -24.5t-174 24.5t-138.5 76t-94 139t-33.5 206.5zM285 434q0 -146 69.5 -218.5t198.5 -72.5t199.5 72.5 t70.5 218.5v617q0 146 -70.5 218t-199.5 72t-198.5 -72t-69.5 -218v-617zM473 741q0 35 22.5 57.5t59.5 22.5q35 0 57.5 -22.5t22.5 -57.5q0 -34 -22.5 -58t-57.5 -24q-36 0 -59 24t-23 58z" />
<glyph unicode="1" horiz-adv-x="507" d="M18 1178q0 18 11.5 39t25.5 32l189 224q26 26 53 26q30 0 53 -16.5t23 -44.5v-1377q0 -29 -25.5 -45t-60.5 -16t-60.5 16t-25.5 45v1180l-76 -113q-19 -22 -43 -22q-27 0 -45.5 21.5t-18.5 50.5z" />
<glyph unicode="2" horiz-adv-x="991" d="M66 61v199q0 68 37.5 133.5t98 120t133 108t145 107.5t133 108.5t98 120.5t37.5 134q0 98 -65 171.5t-185 73.5q-103 0 -167.5 -57t-64.5 -166q0 -28 -24.5 -47.5t-65.5 -19.5q-39 0 -58.5 22.5t-19.5 77.5q0 153 116.5 251.5t283.5 98.5q180 0 301 -113.5t121 -285.5 q0 -89 -37.5 -170.5t-97 -143.5t-131.5 -119t-144 -107t-131.5 -96.5t-97 -98.5t-37.5 -103v-104h628q25 0 42.5 -23t17.5 -55q0 -30 -18 -54t-42 -24h-729q-27 0 -52 17.5t-25 43.5z" />
<glyph unicode="3" horiz-adv-x="1017" d="M53 336q0 46 18 63t62 17q50 0 69 -16.5t19 -51.5t14.5 -69.5t44.5 -65.5t84 -50.5t125 -19.5q137 0 206 68.5t69 214.5v39q0 129 -72.5 189.5t-202.5 60.5q-30 0 -44.5 20t-14.5 51q0 30 14.5 51t44.5 21q118 0 178 53.5t60 192.5q0 124 -56.5 181.5t-172.5 57.5 q-69 0 -118.5 -18t-74.5 -48.5t-36 -62t-11 -67.5q0 -76 -82 -76q-55 0 -72.5 18t-17.5 70q0 41 11 83t40.5 89t74 83t120 59.5t170.5 23.5q391 0 391 -362q0 -129 -45.5 -219t-120.5 -125q209 -85 209 -326v-39q0 -93 -23 -167.5t-63.5 -124.5t-97.5 -83.5t-122 -48 t-141 -14.5q-109 0 -195.5 32t-137 84t-77 111.5t-26.5 120.5z" />
<glyph unicode="4" horiz-adv-x="942" d="M10 412q0 24 10 39l506 997q25 49 78 49q28 0 56 -19.5t28 -47.5q0 -16 -8 -29l-449 -893h355v344q0 29 25.5 44t60.5 15t60.5 -15t25.5 -44v-344h108q29 0 45.5 -24.5t16.5 -57.5q0 -32 -18 -57t-44 -25h-108v-283q0 -29 -25.5 -45t-60.5 -16t-60.5 16t-25.5 45v283 h-512q-29 0 -46.5 18.5t-17.5 49.5z" />
<glyph unicode="5" horiz-adv-x="993" d="M51 342q0 82 86 82t86 -70q0 -98 76 -154.5t193 -56.5q129 0 199.5 71.5t70.5 215.5v39q0 140 -70.5 210.5t-197.5 70.5h-291q-80 0 -80 67q0 21 4 45l43 574q2 28 13.5 44.5t31.5 16.5h590q26 0 40.5 -23t14.5 -55t-14.5 -55t-40.5 -23h-486l-30 -448h205 q96 0 174 -23.5t138.5 -72t94 -132t33.5 -196.5v-39q0 -117 -33.5 -204t-94.5 -138t-139 -75.5t-173 -24.5q-204 0 -323.5 103t-119.5 251z" />
<glyph unicode="6" horiz-adv-x="1077" d="M113 434v617q0 119 33.5 206.5t95.5 139t141 76t178 24.5q104 0 189 -30.5t137 -81.5t80 -114t28 -130q0 -41 -20 -58.5t-60 -17.5q-90 0 -90 68q0 94 -77 151t-191 57q-132 0 -202 -72t-70 -218v-287q99 127 299 127q411 0 411 -414v-43q0 -119 -33.5 -206.5t-94 -139 t-138.5 -76t-174 -24.5t-174 24.5t-139.5 75.5t-95 139t-33.5 207zM285 426q0 -147 70 -219t200 -72q129 0 198.5 72t69.5 219v43q0 146 -68.5 212.5t-199.5 66.5q-270 0 -270 -261v-61z" />
<glyph unicode="7" horiz-adv-x="962" d="M49 1126v310q0 23 24.5 42t53.5 19h727q27 0 52.5 -19t25.5 -42v-191q0 -32 -29 -88l-581 -1132q-14 -29 -56 -29q-41 0 -72.5 23t-31.5 59q0 19 8 35l590 1112v116h-539v-215q0 -26 -25.5 -43.5t-60.5 -17.5q-36 0 -61 17.5t-25 43.5z" />
<glyph unicode="8" horiz-adv-x="1046" d="M82 410v24q0 294 229 383q-186 74 -186 320q0 360 399 360q88 0 158.5 -19t125.5 -60t84.5 -112t29.5 -169q0 -245 -185 -320q228 -90 228 -383v-24q0 -111 -33.5 -194t-94.5 -132t-139 -72.5t-174 -23.5q-97 0 -175 23.5t-139 72.5t-94.5 132t-33.5 194zM254 426 q0 -147 70 -219t200 -72q129 0 199 73t70 218v33q0 142 -70.5 212t-198.5 70q-130 0 -200 -69.5t-70 -212.5v-33zM293 1120q0 -231 231 -231q232 0 232 231q0 230 -232 230q-231 0 -231 -230z" />
<glyph unicode="9" horiz-adv-x="1077" d="M82 344q0 41 20.5 58.5t61.5 17.5q38 0 64 -16.5t26 -51.5q0 -94 77 -151.5t189 -57.5q132 0 202.5 72.5t70.5 218.5v287q-96 -127 -299 -127q-71 0 -130.5 12.5t-112.5 42.5t-89.5 77t-58 118.5t-21.5 163.5v43q0 119 33.5 206.5t94 139t138.5 76t174 24.5 q97 0 175 -24.5t139.5 -76t95 -139t33.5 -206.5v-617q0 -119 -34 -206.5t-96 -139t-141 -76t-178 -24.5q-104 0 -189 30.5t-137 81.5t-80 114t-28 130zM254 1016q0 -146 69 -212.5t201 -66.5q269 0 269 260v62q0 147 -70 219t-201 72q-129 0 -198.5 -72t-69.5 -219v-43z" />
<glyph unicode=":" horiz-adv-x="428" d="M109 94q0 45 30.5 77t75.5 32q43 0 73.5 -32.5t30.5 -76.5q0 -42 -31 -74t-73 -32q-45 0 -75.5 32t-30.5 74zM109 756q0 45 30.5 76.5t75.5 31.5q43 0 73.5 -32t30.5 -76q0 -42 -31 -74.5t-73 -32.5q-45 0 -75.5 32.5t-30.5 74.5z" />
<glyph unicode=";" horiz-adv-x="440" d="M113 94q0 45 30 77t74 32q43 0 75 -30.5t32 -78.5q0 -36 -88 -248q-11 -28 -46 -28q-22 0 -40.5 13.5t-18.5 35.5q0 14 4 22l43 107q-29 12 -47 39t-18 59zM119 756q0 45 30.5 76.5t75.5 31.5q43 0 74 -32t31 -76q0 -42 -31.5 -74.5t-73.5 -32.5q-45 0 -75.5 32.5 t-30.5 74.5z" />
<glyph unicode="&#x3c;" horiz-adv-x="825" d="M45 567q0 44 37 70l547 358q12 9 26 9q28 0 54 -24.5t26 -57.5q0 -15 -7.5 -29.5t-18.5 -20.5l-461 -305l461 -303q26 -19 26 -51t-26 -56t-54 -24q-15 0 -26 8l-547 359q-37 24 -37 67z" />
<glyph unicode="=" horiz-adv-x="897" d="M129 328q0 32 16 52.5t43 20.5h521q24 0 42.5 -21.5t18.5 -51.5q0 -33 -18.5 -53.5t-42.5 -20.5h-521q-28 0 -43.5 20t-15.5 54zM129 743q0 32 16 53t43 21h521q24 0 42.5 -22t18.5 -52q0 -32 -18.5 -52.5t-42.5 -20.5h-521q-28 0 -43.5 19.5t-15.5 53.5z" />
<glyph unicode="&#x3e;" horiz-adv-x="825" d="M90 213q0 32 27 51l461 303l-461 305q-11 6 -19 20.5t-8 29.5q0 33 26 57.5t54 24.5q15 0 27 -9l546 -358q37 -26 37 -70q0 -43 -37 -67l-546 -359q-11 -8 -27 -8q-28 0 -54 24t-26 56z" />
<glyph unicode="?" horiz-adv-x="835" d="M45 1337q0 62 96.5 121.5t235.5 59.5q187 0 292 -101t105 -258q0 -69 -19.5 -130.5t-54 -110t-65.5 -82t-72 -70.5t-55 -53q-52 -52 -65 -113t-13 -186q0 -25 -17.5 -40.5t-52.5 -15.5q-33 0 -49 17.5t-16 58.5q0 149 25.5 224t72.5 122q15 15 55 50t65 61t54.5 65 t44.5 86.5t15 102.5q0 113 -67.5 175t-190.5 62q-52 0 -91.5 -11.5t-62 -28t-39.5 -33t-32.5 -28t-32.5 -11.5q-25 0 -45.5 18t-20.5 49zM254 94q0 44 31.5 76.5t74.5 32.5q44 0 75.5 -32.5t31.5 -76.5q0 -42 -31 -74t-76 -32q-44 0 -75 32t-31 74z" />
<glyph unicode="@" horiz-adv-x="1478" d="M100 438q0 121 24 226t76 195t128.5 154t186.5 100t245 36q309 0 477 -174t168 -492q0 -88 -14.5 -162.5t-44.5 -136t-82.5 -96.5t-122.5 -35q-77 0 -134 40t-69 97q-57 -62 -113 -91t-139 -29q-113 0 -185.5 55t-72.5 172q0 69 28.5 116.5t84 73.5t126 37t167.5 11h81 v36q0 84 -46.5 124t-145.5 40q-44 0 -80 -8t-54 -17.5t-34.5 -17.5t-26.5 -8q-21 0 -36 24t-15 46q0 44 85 76t183 32q137 0 220.5 -69t83.5 -195v-342q6 -48 34.5 -74t67.5 -26q40 0 68 29.5t41 79t18.5 97.5t5.5 101q0 275 -131 423t-395 148q-119 0 -212.5 -32.5 t-154 -87t-99.5 -131.5t-55 -161.5t-16 -181.5q0 -90 14.5 -169t49 -151.5t88 -124t135.5 -82t186 -30.5q77 0 139 15.5t97.5 31t48.5 15.5q21 0 35 -19t14 -35q0 -47 -115.5 -82.5t-236.5 -35.5q-91 0 -174.5 24.5t-157 77.5t-127.5 130t-85.5 188t-31.5 245zM571 297 q0 -62 37.5 -92.5t100.5 -30.5q89 0 150 53t61 115v100h-74q-136 0 -205.5 -30.5t-69.5 -114.5z" />
<glyph unicode="A" horiz-adv-x="1126" d="M35 72q0 4 4 16l418 1362q9 29 38.5 44t67.5 15q37 0 67.5 -15.5t39.5 -43.5l417 -1362q0 -3 1.5 -7.5t1.5 -6.5q0 -30 -34 -52t-73 -22q-49 0 -61 39l-91 305h-538l-90 -305q-12 -39 -64 -39q-37 0 -70.5 21t-33.5 51zM332 485h459l-228 770z" />
<glyph unicode="B" horiz-adv-x="1116" d="M145 59v1377q0 29 23 45t55 16h352q72 0 130 -8.5t113 -32t92 -62t59 -101t22 -146.5q0 -127 -46.5 -214.5t-127.5 -121.5q104 -42 157.5 -121t53.5 -227v-37q0 -114 -31 -198t-87 -133t-127.5 -72t-159.5 -23h-400q-34 0 -56 17.5t-22 41.5zM317 156h277q262 0 262 280 v35q0 142 -66.5 205t-195.5 63h-277v-583zM317 883h256q126 0 186 56.5t60 182.5q0 118 -65.5 168.5t-186.5 50.5h-250v-458z" />
<glyph unicode="C" horiz-adv-x="1087" d="M131 434v617q0 118 34.5 206.5t96 139.5t139 75.5t170.5 24.5q201 0 322 -101t121 -255q0 -56 -20 -75t-66 -19q-83 0 -86 59q-1 30 -7 56.5t-23.5 61t-44.5 59t-77 41.5t-115 17q-272 0 -272 -290v-617q0 -291 279 -291q55 0 97 10.5t69 32t44.5 42.5t27.5 54t14 53 t8 52q6 59 86 59q45 0 65.5 -20t20.5 -76q0 -156 -122 -259t-323 -103q-93 0 -170 24.5t-138.5 75.5t-95.5 139.5t-34 206.5z" />
<glyph unicode="D" horiz-adv-x="1159" d="M145 59v1379q0 24 22 41.5t56 17.5h363q96 0 174 -24.5t139.5 -75.5t95 -139t33.5 -207v-605q0 -119 -33.5 -207t-95 -139t-139.5 -75.5t-174 -24.5h-363q-34 0 -56 17.5t-22 41.5zM317 156h269q129 0 199.5 72t70.5 218v605q0 146 -70.5 218t-199.5 72h-269v-1185z" />
<glyph unicode="E" horiz-adv-x="1052" d="M145 61v1375q0 29 23 45t55 16h729q29 0 44.5 -22.5t15.5 -53.5q0 -33 -16.5 -56.5t-43.5 -23.5h-635v-520h320q27 0 43 -21.5t16 -51.5q0 -28 -15 -49t-44 -21h-320v-522h635q27 0 43.5 -23.5t16.5 -56.5q0 -31 -15.5 -53.5t-44.5 -22.5h-729q-32 0 -55 16t-23 45z" />
<glyph unicode="F" horiz-adv-x="1017" d="M145 59v1377q0 29 23 45t55 16h721q29 0 44.5 -22.5t15.5 -53.5q0 -34 -16 -57t-44 -23h-627v-520h320q28 0 43.5 -21t15.5 -52q0 -28 -15 -49t-44 -21h-320v-619q0 -29 -25.5 -44t-60.5 -15t-60.5 15t-25.5 44z" />
<glyph unicode="G" horiz-adv-x="1122" d="M131 434v617q0 119 33.5 207t94.5 139t137.5 75.5t170.5 24.5q200 0 323.5 -102t123.5 -265q0 -47 -21 -65t-65 -18q-83 0 -86 59q-27 235 -271 235q-129 0 -198.5 -72t-69.5 -218v-617q0 -146 69.5 -218.5t198.5 -72.5t200 72.5t71 218.5v209h-244q-28 0 -43.5 21 t-15.5 51q0 28 15.5 49.5t43.5 21.5h356q28 0 44 -18.5t16 -44.5v-289q0 -119 -34 -207t-95.5 -139t-139.5 -75.5t-174 -24.5t-174 24.5t-138.5 76t-94 139t-33.5 206.5z" />
<glyph unicode="H" horiz-adv-x="1189" d="M145 61v1377q0 29 25.5 44t60.5 15t60.5 -15t25.5 -44v-590h555v590q0 29 25.5 44t60.5 15t60.5 -15t25.5 -44v-1377q0 -29 -25.5 -45t-60.5 -16t-60.5 16t-25.5 45v644h-555v-644q0 -29 -25.5 -45t-60.5 -16t-60.5 16t-25.5 45z" />
<glyph unicode="I" horiz-adv-x="462" d="M145 61v1377q0 29 25.5 44t60.5 15t60.5 -15t25.5 -44v-1377q0 -29 -25.5 -45t-60.5 -16t-60.5 16t-25.5 45z" />
<glyph unicode="J" horiz-adv-x="1062" d="M41 362q0 47 21 65.5t65 18.5q86 0 86 -59q0 -109 70.5 -176.5t197.5 -67.5q130 0 200.5 72.5t70.5 218.5v907h-267q-28 0 -43.5 23t-15.5 57q0 31 14.5 53.5t44.5 22.5h361q32 0 55 -16t23 -45v-1002q0 -95 -22.5 -171t-61.5 -127t-95 -84.5t-119.5 -48.5t-138.5 -15 q-201 0 -323.5 103t-122.5 271z" />
<glyph unicode="K" horiz-adv-x="1083" d="M145 61v1377q0 29 25.5 44t60.5 15t60.5 -15t25.5 -44v-678l549 713q18 24 52 24q33 0 65.5 -28t32.5 -60q0 -19 -15 -37l-417 -522l487 -737q10 -17 10 -31q0 -33 -31.5 -59.5t-68.5 -26.5q-41 0 -63 35l-449 674l-152 -191v-453q0 -29 -25.5 -45t-60.5 -16t-60.5 16 t-25.5 45z" />
<glyph unicode="L" horiz-adv-x="958" d="M145 61v1377q0 29 25.5 44t60.5 15t60.5 -15t25.5 -44v-1282h560q26 0 40.5 -23t14.5 -55t-14.5 -55t-40.5 -23h-654q-32 0 -55 16t-23 45z" />
<glyph unicode="M" horiz-adv-x="1382" d="M145 61v1352q0 43 24.5 63.5t61.5 20.5q45 0 77 -26t61 -82l321 -617l324 617q31 56 62 82t75 26q37 0 61.5 -20.5t24.5 -63.5v-1352q0 -29 -25.5 -45t-60.5 -16t-60.5 16t-25.5 45v1076l-309 -582q-24 -47 -68 -47q-39 0 -63 47l-308 590v-1084q0 -29 -25.5 -45 t-60.5 -16t-60.5 16t-25.5 45z" />
<glyph unicode="N" horiz-adv-x="1189" d="M145 61v1377q0 30 24.5 44.5t61.5 14.5q44 0 73 -25.5t58 -82.5l510 -998v1047q0 29 25.5 44t60.5 15t60.5 -15t25.5 -44v-1377q0 -29 -25.5 -45t-60.5 -16q-65 0 -108 78l-533 1030v-1047q0 -29 -25.5 -45t-60.5 -16t-60.5 16t-25.5 45z" />
<glyph unicode="O" d="M131 434v617q0 119 33.5 206.5t94 139t138.5 76t174 24.5t174 -24.5t139.5 -75.5t95.5 -139t34 -207v-617q0 -119 -34 -207t-95.5 -139t-139.5 -75.5t-174 -24.5t-174 24.5t-138.5 76t-94 139t-33.5 206.5zM303 434q0 -146 69.5 -218.5t198.5 -72.5t200 72.5t71 218.5 v617q0 146 -71 218t-200 72t-198.5 -72t-69.5 -218v-617z" />
<glyph unicode="P" horiz-adv-x="1095" d="M145 61v1377q0 24 19.5 41.5t50.5 17.5h387q94 0 170.5 -24t137 -75t93.5 -138t33 -205v-19q0 -117 -33.5 -204.5t-95 -139t-139.5 -76t-174 -24.5h-277v-531q0 -29 -25.5 -45t-60.5 -16t-60.5 16t-25.5 45zM317 735h277q129 0 199.5 73t70.5 218v25q0 146 -70.5 218 t-199.5 72h-277v-606z" />
<glyph unicode="Q" d="M131 434v617q0 119 33.5 206.5t94 139t138.5 76t174 24.5t174 -24.5t139.5 -75.5t95.5 -139t34 -207v-617q0 -213 -102.5 -321t-276.5 -121v-154q0 -29 -18.5 -45t-43.5 -16t-43 16t-18 45v154q-85 6 -152.5 34t-119.5 79.5t-80.5 135t-28.5 193.5zM303 434 q0 -251 209 -282v139q0 29 18 44t43 15q26 0 44 -15t18 -44v-137q99 14 153 84t54 196v617q0 146 -71 218t-200 72t-198.5 -72t-69.5 -218v-617z" />
<glyph unicode="R" horiz-adv-x="1112" d="M145 61v1377q0 24 17.5 41t44.5 18h375q98 0 176.5 -21t142.5 -67t99.5 -127.5t35.5 -194.5q0 -177 -82.5 -274t-222.5 -125l303 -575q8 -13 8 -29q0 -33 -32.5 -60.5t-69.5 -27.5q-44 0 -78 67l-309 601h-236v-603q0 -29 -25.5 -45t-60.5 -16t-60.5 16t-25.5 45z M317 807h265q282 0 282 268q0 266 -282 266h-265v-534z" />
<glyph unicode="S" horiz-adv-x="1028" d="M68 215q0 32 23.5 63t51.5 31q16 0 36 -17t45 -41.5t58.5 -49t89 -41.5t122.5 -17q132 0 208 64.5t76 189.5q0 66 -23 116.5t-62 83.5t-89.5 59.5t-106.5 48t-112 44.5t-106.5 54.5t-89.5 72t-62 102.5t-23 142q0 87 28 155t72 109.5t105 68.5t121 37.5t125 10.5 q57 0 117.5 -8.5t115.5 -24.5t90 -42.5t35 -59.5q0 -30 -20.5 -62t-52.5 -32q-14 0 -39.5 12t-53.5 27t-79.5 27t-112.5 12q-125 0 -202 -51t-77 -162q0 -55 23 -97t62 -69.5t89.5 -50.5t106.5 -44t112 -45t106.5 -59.5t89.5 -81.5t62 -116.5t23 -159.5q0 -212 -122 -321 t-326 -109q-183 0 -308.5 78t-125.5 153z" />
<glyph unicode="T" horiz-adv-x="1011" d="M27 1419q0 31 16 54.5t45 23.5h834q29 0 45 -23t16 -55q0 -33 -16 -57.5t-45 -24.5h-330v-1276q0 -29 -25.5 -45t-60.5 -16t-60.5 16t-25.5 45v1276h-332q-28 0 -44.5 24t-16.5 58z" />
<glyph unicode="U" horiz-adv-x="1173" d="M139 434v1004q0 29 25.5 44t60.5 15t60.5 -15t25.5 -44v-1004q0 -146 71.5 -218.5t203.5 -72.5t204 72.5t72 218.5v1004q0 29 24.5 44t61.5 15q34 0 60 -15t26 -44v-1004q0 -119 -34 -207t-96 -139t-141 -75.5t-177 -24.5t-177 24.5t-140.5 76t-95.5 139t-34 206.5z" />
<glyph unicode="V" horiz-adv-x="1124" d="M35 1425q0 30 33.5 51t70.5 21q52 0 64 -39l360 -1216l359 1216q14 39 61 39q39 0 73 -22t34 -52q0 -2 -1.5 -6.5t-1.5 -7.5l-415 -1362q-10 -28 -40.5 -43.5t-68.5 -15.5t-66.5 15t-37.5 44l-420 1362q-4 12 -4 16z" />
<glyph unicode="W" horiz-adv-x="1665" d="M35 1427q0 29 33 49.5t71 20.5q52 0 64 -39l346 -1216l194 749q14 53 91 53q72 0 86 -53l196 -749l344 1216q12 39 66 39q38 0 70 -20.5t32 -49.5q0 -12 -2 -18l-403 -1362q-9 -28 -39.5 -43.5t-67.5 -15.5q-38 0 -68.5 15t-37.5 44l-176 676l-179 -676q-7 -28 -37 -43.5 t-67 -15.5q-39 0 -68.5 15t-38.5 44l-405 1362q-4 12 -4 18z" />
<glyph unicode="X" horiz-adv-x="1034" d="M41 80q0 19 12 37l353 633l-345 628q-14 22 -14 45q0 34 32.5 56t72.5 22q43 0 75 -65l289 -545l291 545q32 65 76 65q40 0 72 -22t32 -56q0 -23 -14 -45l-346 -628l354 -633q12 -18 12 -37q0 -34 -35 -59t-73 -25q-36 0 -66 57l-303 559l-301 -559q-30 -57 -65 -57 q-38 0 -73.5 25t-35.5 59z" />
<glyph unicode="Y" horiz-adv-x="1116" d="M35 1425q0 30 33.5 51t68.5 21q39 0 62 -45l360 -702l359 702q23 45 61 45q37 0 69.5 -21t32.5 -51q0 -15 -8 -34l-424 -791q-4 -6 -4 -20v-519q0 -29 -25.5 -45t-60.5 -16t-60.5 16t-25.5 45v519q0 11 -6 20l-424 791q-8 19 -8 34z" />
<glyph unicode="Z" horiz-adv-x="1013" d="M43 55q0 28 16 60l662 1226h-590q-28 0 -43.5 22.5t-15.5 55.5q0 32 15 55t44 23h754q59 0 59 -51q0 -28 -20 -66l-660 -1224h647q28 0 45 -24t17 -54t-17 -54t-45 -24h-809q-29 0 -44 15t-15 40z" />
<glyph unicode="[" horiz-adv-x="643" d="M133 16v1497q0 27 23.5 43.5t54.5 16.5h336q28 0 43.5 -23t15.5 -53q0 -33 -16 -55.5t-43 -22.5h-242v-1308h242q27 0 43 -22.5t16 -55.5q0 -30 -15.5 -53t-43.5 -23h-336q-31 0 -54.5 16.5t-23.5 42.5z" />
<glyph unicode="\" horiz-adv-x="718" d="M43 1481q0 26 21 44.5t49 18.5q42 0 53 -35l506 -1429q4 -6 4 -19q0 -25 -20 -43t-48 -18q-45 0 -57 41l-504 1417q-4 8 -4 23z" />
<glyph unicode="]" horiz-adv-x="643" d="M37 33q0 33 16 55.5t43 22.5h242v1308h-242q-27 0 -43 22.5t-16 55.5q0 30 15.5 53t43.5 23h336q31 0 54.5 -16.5t23.5 -43.5v-1497q0 -26 -23.5 -42.5t-54.5 -16.5h-336q-28 0 -43.5 23t-15.5 53z" />
<glyph unicode="^" horiz-adv-x="559" d="M0 1264q0 38 31 53l213 115q20 10 35 10q17 0 34 -10l213 -113q33 -17 33 -57q0 -23 -13.5 -40.5t-33.5 -17.5q-3 0 -10 2.5t-10 3.5l-213 115l-213 -115q-9 -6 -19 -6q-19 0 -33 18.5t-14 41.5z" />
<glyph unicode="_" horiz-adv-x="675" d="M-49 -74q0 32 16 53t43 21h656q24 0 42.5 -22t18.5 -52q0 -31 -18.5 -51t-42.5 -20h-656q-28 0 -43.5 19t-15.5 52z" />
<glyph unicode="`" horiz-adv-x="344" d="M0 1372q0 26 16.5 48t40.5 22q9 0 21 -4l239 -127q27 -13 27 -45q0 -26 -18 -48t-43 -22q-7 0 -23 8l-231 119q-29 15 -29 49z" />
<glyph unicode="a" horiz-adv-x="917" d="M57 256q0 83 34 140t100.5 88t149.5 44t196 13h98v43q0 48 -12.5 91.5t-38 80.5t-70.5 59.5t-104 22.5q-49 0 -90 -9.5t-62 -20.5t-41 -20.5t-31 -9.5q-29 0 -46 27.5t-17 58.5q0 46 93.5 82.5t197.5 36.5t181.5 -32.5t122 -89.5t66 -126t21.5 -149v-525 q0 -26 -23.5 -43.5t-60.5 -17.5q-34 0 -56 17.5t-22 43.5v82q-140 -159 -309 -159q-122 0 -199.5 69.5t-77.5 202.5zM229 274q0 -76 43.5 -114.5t114.5 -38.5q87 0 167.5 69t80.5 140v106h-72q-49 0 -86 -2t-77.5 -7.5t-69 -17t-53 -29t-36.5 -44.5t-12 -62z" />
<glyph unicode="b" horiz-adv-x="1011" d="M123 61v1436q0 26 23.5 42.5t60.5 16.5q36 0 61 -16.5t25 -42.5v-670q37 67 106.5 111.5t161.5 44.5q151 0 259 -116t108 -277v-209q0 -156 -108.5 -276.5t-252.5 -120.5q-93 0 -170.5 46.5t-111.5 112.5v-82q0 -24 -23 -42.5t-55 -18.5q-36 0 -60 18.5t-24 42.5z M293 326q0 -51 71.5 -120t161.5 -69q92 0 162 75t70 169v209q0 93 -69.5 166t-164.5 73q-92 0 -161.5 -66t-69.5 -173v-264z" />
<glyph unicode="c" horiz-adv-x="854" d="M86 381v205q0 176 103.5 286.5t304.5 110.5q127 0 214 -45.5t87 -95.5q0 -28 -21.5 -56t-50.5 -28q-13 0 -32 11t-38.5 24.5t-59 24.5t-87.5 11q-124 0 -187 -63.5t-63 -179.5v-205q0 -117 63 -180.5t189 -63.5q50 0 90 11.5t60 25.5t39.5 25.5t33.5 11.5q32 0 54 -26.5 t22 -55.5q0 -51 -90.5 -98t-220.5 -47q-203 0 -306.5 109.5t-103.5 287.5z" />
<glyph unicode="d" horiz-adv-x="1011" d="M84 381v209q0 161 108 277t259 116q92 0 161.5 -44.5t106.5 -111.5v670q0 26 25 42.5t61 16.5q37 0 60.5 -16.5t23.5 -42.5v-1436q0 -24 -24 -42.5t-60 -18.5q-32 0 -55 18.5t-23 42.5v82q-34 -66 -112 -112.5t-171 -46.5q-94 0 -177.5 55.5t-133 147.5t-49.5 194z M254 381q0 -94 69.5 -169t161.5 -75q90 0 162 69.5t72 119.5v264q0 107 -70 173t-162 66q-95 0 -164 -73t-69 -166v-209z" />
<glyph unicode="e" horiz-adv-x="952" d="M84 381v215q0 158 120 272.5t288 114.5q160 0 276.5 -108t116.5 -269q0 -47 -11 -80.5t-26 -50.5t-42.5 -26t-48.5 -11t-55 -2h-448v-61q0 -113 81 -180.5t210 -67.5q52 0 96 12.5t67 27.5t46 27.5t39 12.5q29 0 49 -26t20 -52q0 -46 -93 -95.5t-230 -49.5 q-201 0 -328 110t-127 287zM254 551h379q54 0 72 12.5t18 52.5q0 93 -67.5 162.5t-166.5 69.5q-97 0 -166 -65t-69 -158v-74z" />
<glyph unicode="f" horiz-adv-x="645" d="M123 59v1115q0 159 106.5 270.5t255.5 111.5h72q32 0 51 -22t19 -53t-19 -52.5t-51 -21.5h-43q-94 0 -156.5 -63.5t-64.5 -155.5v-217h280q24 0 39 -20.5t15 -47.5t-15 -46t-39 -19h-280v-779q0 -26 -26 -42.5t-62 -16.5t-59 16.5t-23 42.5z" />
<glyph unicode="g" horiz-adv-x="935" d="M45 -193q0 150 166 224q-51 19 -78 50.5t-27 86.5q0 53 26 87.5t77 63.5q-56 44 -86.5 112t-30.5 147v67q0 150 100.5 244t264.5 94q139 0 239 -80q30 65 67.5 99t72.5 34q33 0 53 -19.5t20 -43.5q0 -31 -35 -47q-68 -18 -110 -86q63 -75 63 -195v-67q0 -147 -104 -243.5 t-266 -96.5q-85 0 -152 30q-51 -30 -51 -69q0 -34 35 -53.5t90.5 -28.5t122.5 -15.5t134.5 -21.5t123 -41t90.5 -79t35 -130q0 -146 -116 -222.5t-300 -76.5t-304 75t-120 201zM207 -174q0 -80 71 -128t189 -48q115 0 183.5 48t68.5 128q0 28 -10.5 51t-26 38t-41 27.5 t-48.5 19.5t-57 12.5t-57.5 8t-58 6t-51.5 5.5q-162 -53 -162 -168zM258 580q0 -98 54.5 -162t148.5 -64q91 0 146 63t55 161v67q0 95 -55 158t-148 63q-94 0 -147.5 -62.5t-53.5 -158.5v-65z" />
<glyph unicode="h" horiz-adv-x="1032" d="M123 61v1436q0 26 23.5 42.5t60.5 16.5q36 0 61 -16.5t25 -42.5v-670q34 66 103.5 111t162.5 45q147 0 254 -116t107 -277v-529q0 -29 -25.5 -45t-60.5 -16q-33 0 -58.5 16t-25.5 45v529q0 92 -70 165.5t-164 73.5q-89 0 -156 -66t-67 -173v-529q0 -24 -25.5 -42.5 t-60.5 -18.5q-36 0 -60 18.5t-24 42.5z" />
<glyph unicode="i" horiz-adv-x="411" d="M98 1335q0 39 31.5 68t75.5 29q42 0 73 -29t31 -68t-31 -68.5t-73 -29.5q-44 0 -75.5 29.5t-31.5 68.5zM121 61v850q0 26 24 43t60 17t61 -17t25 -43v-850q0 -24 -25.5 -42.5t-60.5 -18.5t-59.5 18.5t-24.5 42.5z" />
<glyph unicode="j" horiz-adv-x="415" d="M-76 -395q0 33 20 54.5t50 21.5q34 0 57.5 12t37.5 31.5t21.5 51.5t10 64t2.5 78v993q0 26 23.5 43t60.5 17q36 0 61 -17t25 -43v-993q0 -179 -69.5 -283t-211.5 -104q-46 0 -67 21.5t-21 52.5zM100 1335q0 39 31.5 68t75.5 29q42 0 73 -29t31 -68t-31 -68.5t-73 -29.5 q-44 0 -75.5 29.5t-31.5 68.5z" />
<glyph unicode="k" horiz-adv-x="956" d="M123 61v1436q0 26 23.5 42.5t60.5 16.5q36 0 61 -16.5t25 -42.5v-958l467 422q18 14 37 14q30 0 58 -25t28 -55q0 -25 -19 -41l-284 -252l340 -493q10 -17 10 -31q0 -30 -30.5 -58t-63.5 -28q-31 0 -48 26l-325 478l-170 -152v-283q0 -24 -25.5 -42.5t-60.5 -18.5 q-36 0 -60 18.5t-24 42.5z" />
<glyph unicode="l" horiz-adv-x="448" d="M139 61v1436q0 26 23.5 42.5t60.5 16.5q36 0 61 -16.5t25 -42.5v-1436q0 -24 -25.5 -42.5t-60.5 -18.5q-36 0 -60 18.5t-24 42.5z" />
<glyph unicode="m" horiz-adv-x="1609" d="M121 61v850q0 26 23.5 43t60.5 17q33 0 55.5 -17t22.5 -43v-84q38 67 108 111.5t164 44.5q95 0 170 -56t111 -149q52 101 135 153t176 52q143 0 246.5 -107t103.5 -286v-529q0 -24 -25.5 -42.5t-60.5 -18.5q-33 0 -58.5 18.5t-25.5 42.5v529q0 112 -65 175.5t-150 63.5 q-86 0 -152.5 -65t-66.5 -168v-537q0 -29 -25.5 -44t-60.5 -15q-33 0 -58.5 15t-25.5 44v535q0 102 -62.5 168.5t-150.5 66.5t-153.5 -64.5t-65.5 -174.5v-529q0 -24 -25.5 -42.5t-60.5 -18.5q-36 0 -60 18.5t-24 42.5z" />
<glyph unicode="n" horiz-adv-x="1030" d="M121 61v850q0 26 23.5 43t60.5 17q32 0 55 -17t23 -43v-84q34 66 106 111t168 45q147 0 254 -116t107 -277v-529q0 -29 -26 -45t-61 -16q-34 0 -58.5 16t-24.5 45v529q0 92 -70 165.5t-164 73.5q-89 0 -156 -66t-67 -173v-529q0 -23 -26 -42t-60 -19q-36 0 -60 18.5 t-24 42.5z" />
<glyph unicode="o" horiz-adv-x="976" d="M84 381v209q0 103 54 193.5t147.5 145t201.5 54.5q164 0 285 -116.5t121 -276.5v-209q0 -76 -33 -149t-88 -127.5t-130 -87.5t-155 -33q-106 0 -199.5 55.5t-148.5 147t-55 194.5zM254 381q0 -95 69 -169.5t164 -74.5t165.5 74.5t70.5 169.5v209q0 93 -70 166t-166 73 t-164.5 -73t-68.5 -166v-209z" />
<glyph unicode="p" horiz-adv-x="1011" d="M123 -408v1319q0 26 23.5 43t58.5 17q34 0 57 -17t23 -43v-84q37 66 109 111t165 45q153 0 261 -115.5t108 -277.5v-209q0 -156 -108.5 -276.5t-252.5 -120.5q-90 0 -165 46t-109 113v-551q0 -24 -25.5 -42.5t-60.5 -18.5q-36 0 -60 18.5t-24 42.5zM293 326 q0 -51 70.5 -120t160.5 -69q93 0 163.5 75t70.5 169v209q0 93 -71 166t-167 73q-90 0 -158.5 -66t-68.5 -173v-264z" />
<glyph unicode="q" horiz-adv-x="1011" d="M84 381v209q0 162 108 277.5t261 115.5q93 0 165 -45t109 -111v84q0 26 23 43t57 17q35 0 58.5 -17t23.5 -43v-1319q0 -24 -24 -42.5t-60 -18.5q-35 0 -60.5 18.5t-25.5 42.5v551q-34 -66 -109.5 -112.5t-165.5 -46.5q-94 0 -177.5 55.5t-133 147.5t-49.5 194zM254 381 q0 -94 70.5 -169t162.5 -75q90 0 161 69t71 120v264q0 107 -68.5 173t-158.5 66q-96 0 -167 -73t-71 -166v-209z" />
<glyph unicode="r" horiz-adv-x="704" d="M121 61v850q0 26 23.5 43t60.5 17q33 0 55.5 -17t22.5 -43v-96q37 70 108 119t160 49h70q26 0 45.5 -23.5t19.5 -54.5t-19.5 -53.5t-45.5 -22.5h-70q-104 0 -182 -83.5t-78 -217.5v-467q0 -24 -25.5 -42.5t-60.5 -18.5q-36 0 -60 18.5t-24 42.5z" />
<glyph unicode="s" horiz-adv-x="802" d="M61 139q0 26 17.5 52t42.5 26q14 0 37 -15t47.5 -33t74.5 -33t111 -15q102 0 148.5 36.5t46.5 92.5q0 44 -21.5 76.5t-56.5 50t-80 34t-92 28t-92 32.5t-80 47t-56.5 71.5t-21.5 106.5q0 53 18.5 102t56.5 91.5t105.5 68t155.5 25.5q108 0 198.5 -34.5t90.5 -76.5 q0 -25 -20 -55.5t-48 -30.5q-13 0 -43.5 15t-77 30t-98.5 15q-94 0 -140 -44.5t-46 -99.5q0 -37 21.5 -64t57 -41.5t80.5 -29t91.5 -26.5t91.5 -34.5t80.5 -52t57 -80t21.5 -116.5q0 -127 -89.5 -200.5t-252.5 -73.5q-140 0 -238 49.5t-98 105.5z" />
<glyph unicode="t" horiz-adv-x="634" d="M117 309v1055q0 25 26.5 42t57.5 17q34 0 60 -17t26 -42v-393h258q22 0 36.5 -20.5t14.5 -47.5t-14 -46t-37 -19h-258v-529q0 -88 37.5 -123.5t132.5 -35.5h63q34 0 54 -21.5t20 -52.5t-20 -53.5t-54 -22.5h-63q-169 0 -254.5 75t-85.5 234z" />
<glyph unicode="u" horiz-adv-x="1034" d="M113 377v532q0 24 25 43t61 19q32 0 58 -19.5t26 -42.5v-532q0 -93 69.5 -166.5t165.5 -73.5q95 0 164.5 73t69.5 167v534q0 24 25.5 42t60.5 18q36 0 60 -18t24 -42v-534q0 -157 -120 -275t-284 -118q-109 0 -203 55t-148 145.5t-54 192.5z" />
<glyph unicode="v" horiz-adv-x="894" d="M25 901q0 29 36 51.5t72 22.5q44 0 55 -33l261 -696l256 688q16 41 55 41q33 0 71.5 -22.5t38.5 -51.5q0 -17 -8 -33l-336 -850q-7 -17 -29 -26.5t-48 -9.5q-66 0 -80 36l-336 850q-8 24 -8 33z" />
<glyph unicode="w" horiz-adv-x="1382" d="M29 901q0 30 34 52t70 22q44 0 55 -33l248 -688l193 620q13 41 63 41q53 0 66 -41l188 -626l250 694q4 15 19 24t34 9q36 0 71.5 -21.5t35.5 -52.5q0 -17 -8 -33l-320 -850q-13 -36 -67 -36q-56 0 -70 36l-199 603l-194 -596q-15 -43 -74 -43q-54 0 -70 43l-317 843 q-8 24 -8 33z" />
<glyph unicode="x" horiz-adv-x="872" d="M49 68q0 17 10 34l265 390l-254 372q-13 17 -13 33q0 30 37 58t72 28q28 0 45 -25l225 -352l230 352q16 25 45 25q32 0 69 -28t37 -58q0 -18 -10 -33l-258 -372l266 -390q10 -13 10 -34q0 -28 -35 -56t-69 -28q-32 0 -47 24l-238 363l-235 -363q-15 -24 -47 -24 q-31 0 -68 28t-37 56z" />
<glyph unicode="y" horiz-adv-x="894" d="M25 901q0 32 37 57t73 25q44 0 55 -35l271 -712l244 712q14 35 53 35q35 0 72.5 -25t37.5 -59q0 -11 -6 -20l-311 -834q-75 -200 -121 -283q-116 -209 -285 -229q-19 -2 -39 -2q-38 0 -58.5 16.5t-20.5 59.5q0 74 49 74q92 0 179 103.5t118 264.5l-340 830q-8 12 -8 22z " />
<glyph unicode="z" horiz-adv-x="841" d="M47 63q0 33 27 68l473 694h-424q-23 0 -40 21.5t-17 50.5q0 30 16 52t41 22h586q26 0 43.5 -18t17.5 -48q0 -34 -25 -65l-475 -695h469q24 0 41 -21.5t17 -51.5t-16 -51t-42 -21h-628q-30 0 -47 19t-17 44z" />
<glyph unicode="{" horiz-adv-x="665" d="M57 788q0 32 19 48t42.5 18.5t42.5 13.5t19 35q0 17 -19.5 155t-19.5 173q0 135 120.5 238.5t275.5 103.5q47 0 69.5 -22t22.5 -54q0 -29 -16.5 -51.5t-43.5 -22.5q-99 0 -177.5 -61t-78.5 -152q0 -30 19.5 -166.5t19.5 -156.5q0 -35 -25.5 -65.5t-47.5 -35.5 q23 -6 48 -34t25 -64q0 -23 -19.5 -193.5t-19.5 -203.5q0 -50 27.5 -88t70 -57t82.5 -28t76 -9q30 0 45 -23.5t15 -50.5q0 -36 -25.5 -56t-68.5 -20q-160 0 -277 90t-117 227q0 38 19.5 209t19.5 189q0 24 -19 34.5t-42.5 12.5t-42.5 18t-19 49z" />
<glyph unicode="|" horiz-adv-x="436" d="M133 16v1497q0 26 24.5 43t61.5 17q35 0 60.5 -17t25.5 -43v-1497q0 -23 -26 -41t-60 -18q-36 0 -61 17.5t-25 41.5z" />
<glyph unicode="}" horiz-adv-x="665" d="M37 35q0 28 13.5 51t45.5 23q36 0 76 9t82.5 28t70 57t27.5 88q0 33 -19.5 203.5t-19.5 193.5q0 36 25 64.5t49 33.5q-22 5 -48 35.5t-26 65.5q0 20 19.5 156.5t19.5 166.5q0 90 -79 151.5t-177 61.5q-26 0 -42.5 22.5t-16.5 51.5q0 32 22.5 54t69.5 22q155 0 275 -103.5 t120 -238.5q0 -35 -19.5 -173t-19.5 -155q0 -24 19 -35t42.5 -13.5t42.5 -18.5t19 -48q0 -33 -19 -49t-42.5 -18t-42.5 -12.5t-19 -34.5q0 -18 19.5 -189t19.5 -209q0 -137 -116.5 -227t-276.5 -90q-43 0 -68.5 20t-25.5 56z" />
<glyph unicode="~" horiz-adv-x="823" d="M84 500q0 42 33.5 72t72 41.5t72.5 11.5q56 0 139.5 -34t137.5 -34q39 0 68 13.5t48 27.5t33 14q23 0 36 -19.5t13 -37.5q0 -34 -19 -59.5t-47.5 -38.5t-55.5 -19t-50 -6q-61 0 -143 34t-135 34q-38 0 -69 -15t-52 -30t-35 -15q-23 0 -35 20t-12 40z" />
<glyph unicode="&#xa1;" horiz-adv-x="421" d="M102 1411q0 43 31.5 75t75.5 32t75 -32t31 -75q0 -44 -31 -76t-75 -32t-75.5 32t-31.5 76zM119 76q0 160 12 508t12 508q0 26 20.5 40.5t45.5 14.5q28 0 47.5 -14.5t19.5 -40.5q0 -160 13.5 -508t13.5 -508q0 -41 -26.5 -64.5t-67.5 -23.5q-38 0 -64 23.5t-26 64.5z" />
<glyph unicode="&#xa2;" horiz-adv-x="856" d="M66 733v41q0 158 83 264t248 127v203q0 23 17 38t41 15t41.5 -15t17.5 -38v-201q111 -7 188.5 -47t77.5 -88q0 -31 -20.5 -56.5t-50.5 -25.5q-12 0 -35 15.5t-64 33.5t-96 21v-531q55 3 95.5 21t63 33.5t36.5 15.5q33 0 55 -24.5t22 -55.5q0 -50 -82 -90.5t-190 -48.5 v-203q0 -22 -18 -38.5t-41 -16.5t-40.5 16.5t-17.5 38.5v205q-164 20 -247.5 125t-83.5 266zM219 733q0 -202 178 -241v524q-178 -39 -178 -242v-41z" />
<glyph unicode="&#xa3;" horiz-adv-x="1028" d="M47 78q0 32 15 55t44 23h117l84 596h-145q-24 0 -37.5 18.5t-13.5 46.5t13.5 48t37.5 20h164l41 286q25 168 162 285t309 117h49q29 0 47 -23.5t18 -54.5q0 -30 -18 -53t-47 -23h-60q-115 0 -194.5 -72t-95.5 -176l-41 -286h288q23 0 37.5 -20.5t14.5 -47.5 q0 -26 -14 -45.5t-38 -19.5h-307l-86 -596h504q26 0 41.5 -23.5t15.5 -54.5t-15.5 -54.5t-41.5 -23.5h-789q-29 0 -44 23t-15 55z" />
<glyph unicode="&#xa4;" horiz-adv-x="962" d="M119 664q0 14 10 24l64 62q-72 98 -72 217q0 121 72 215l-54 53q-12 12 -12 27q0 18 14.5 32.5t32.5 14.5q12 0 27 -11l51 -51q98 88 231 88q125 0 226 -82l53 54q13 10 26 10q19 0 33.5 -14t14.5 -33q0 -12 -11 -27l-57 -53q80 -96 80 -223q0 -121 -80 -224l57 -55 q11 -15 11 -24q0 -18 -15 -33t-33 -15q-16 0 -24 11l-55 53q-102 -86 -226 -86q-128 0 -231 90l-62 -57q-11 -11 -24 -11q-19 0 -33 14.5t-14 33.5zM233 967q0 -102 74 -181t176 -79q103 0 177.5 79t74.5 181q0 99 -74.5 177.5t-177.5 78.5q-102 0 -176 -78t-74 -178z" />
<glyph unicode="&#xa5;" horiz-adv-x="1064" d="M47 1430q0 26 32 49.5t66 23.5q37 0 56 -43l327 -631l338 631q22 43 56 43t65 -23t31 -50q0 -17 -4 -23l-363 -641h191q24 0 42.5 -20.5t18.5 -47.5t-18.5 -45t-42.5 -18h-230v-146h230q24 0 42.5 -19t18.5 -46q0 -28 -18.5 -47t-42.5 -19h-230v-299q0 -27 -24.5 -43 t-59.5 -16t-60.5 16t-25.5 43v299h-219q-26 0 -42.5 18t-16.5 46q0 29 16.5 48t42.5 19h219v146h-219q-26 0 -42.5 17.5t-16.5 45.5t16.5 48t42.5 20h180l-350 641q-6 9 -6 23z" />
<glyph unicode="&#xa6;" horiz-adv-x="436" d="M133 16v545q0 26 23.5 43t60.5 17q36 0 61 -17t25 -43v-545q0 -23 -25.5 -41t-60.5 -18q-36 0 -60 17.5t-24 41.5zM133 969v544q0 26 23.5 43t60.5 17q36 0 61 -17t25 -43v-544q0 -24 -25.5 -42t-60.5 -18q-36 0 -60 18t-24 42z" />
<glyph unicode="&#xa7;" horiz-adv-x="960" d="M94 203q0 73 76 73q39 0 57.5 -15.5t18.5 -39.5q0 -33 9 -65.5t30.5 -67.5t66.5 -56.5t109 -21.5q112 0 171.5 58t59.5 161q0 50 -19.5 88t-53 62.5t-76.5 44t-91 37.5t-95.5 38t-90.5 49.5t-76.5 68.5t-53 99t-19.5 136v244q0 94 23.5 166.5t60 116t86.5 71t97.5 37.5 t98.5 10q163 0 252.5 -94.5t89.5 -237.5q0 -43 -18 -59t-51 -16q-78 0 -78 69q0 31 -8.5 61.5t-28 61.5t-59 50.5t-93.5 19.5q-91 0 -152 -57t-61 -171q0 -63 32.5 -107.5t84.5 -70.5t114.5 -48t125 -51t114.5 -68.5t84.5 -110t32.5 -166.5v-242q0 -107 -32.5 -186.5 t-89.5 -124t-123.5 -65.5t-143.5 -21q-174 0 -277.5 100.5t-103.5 239.5zM264 827q0 -76 33.5 -127t88.5 -78.5t113 -47.5t120.5 -48t97.5 -65v55q0 64 -24.5 111t-63 72.5t-89.5 48t-99 37t-97.5 40t-79.5 56.5v-54z" />
<glyph unicode="&#xa8;" horiz-adv-x="432" d="M0 1290q0 35 24.5 59.5t59.5 24.5q34 0 58 -24.5t24 -59.5t-24 -60.5t-58 -25.5q-35 0 -59.5 25.5t-24.5 60.5zM268 1290q0 35 23.5 59.5t58.5 24.5t58.5 -24.5t23.5 -59.5q0 -36 -23.5 -61t-58.5 -25t-58.5 25t-23.5 61z" />
<glyph unicode="&#xa9;" horiz-adv-x="1454" d="M98 733q0 132 38.5 244.5t102.5 189.5t147.5 131.5t171 79.5t175.5 25t175.5 -25.5t168.5 -80t143 -131t99 -186.5t37 -239q0 -132 -38.5 -244.5t-102.5 -189t-147.5 -131t-171 -79.5t-175.5 -25t-175.5 25.5t-168.5 80t-143 130.5t-99 186t-37 239zM199 733 q0 -247 144 -404t378 -157q235 0 384.5 158t149.5 411q0 247 -144 404.5t-378 157.5q-235 0 -384.5 -158.5t-149.5 -411.5zM506 596v311q0 129 62 189.5t161 60.5q102 0 164.5 -56.5t62.5 -146.5q0 -34 -12.5 -46.5t-42.5 -12.5q-55 0 -55 39q-6 121 -113 121 q-117 0 -117 -148v-311q0 -150 117 -150q28 0 49 9.5t31.5 21t18 32.5t9.5 33t5 33q3 39 55 39q30 0 42.5 -13t12.5 -48q0 -91 -63.5 -149t-165.5 -58q-99 0 -160 60.5t-61 189.5z" />
<glyph unicode="&#xaa;" horiz-adv-x="653" d="M66 1059q0 104 79.5 145t229.5 41h59v25q0 61 -33.5 106t-101.5 45q-42 0 -72.5 -9.5t-48 -19.5t-26.5 -10q-20 0 -33 20t-13 44q0 31 63.5 56.5t131.5 25.5t119 -21.5t80.5 -58t44 -81.5t14.5 -97v-332q0 -19 -17 -32t-44 -13q-23 0 -40.5 13t-17.5 32v47 q-85 -100 -207 -100q-73 0 -120 45t-47 129zM193 1073q0 -45 25.5 -68.5t66.5 -23.5q54 0 101.5 43t47.5 90v57h-53q-41 0 -71.5 -3.5t-58.5 -13.5t-43 -30.5t-15 -50.5z" />
<glyph unicode="&#xab;" horiz-adv-x="888" d="M66 567q0 16 28 70l172 321q17 27 56 27t69.5 -28t30.5 -58q0 -10 -6 -22l-166 -310l166 -309q6 -9 6 -22q0 -29 -32 -56.5t-71 -27.5t-53 26l-172 320q-4 7 -11 20t-9.5 18.5t-5 14t-2.5 16.5zM451 567q0 16 28 70l172 321q13 27 56 27q38 0 69 -28.5t31 -57.5 q0 -10 -6 -22l-166 -310l166 -309q6 -9 6 -22q0 -29 -32 -56.5t-70 -27.5q-40 0 -54 26l-172 320q-3 5 -9.5 17t-8.5 15.5t-5 11t-4 13t-1 12.5z" />
<glyph unicode="&#xac;" horiz-adv-x="995" d="M90 492q0 31 16.5 52t43.5 21h659q24 0 42.5 -21.5t18.5 -51.5v-304q0 -24 -24.5 -41.5t-59.5 -17.5q-36 0 -61 17.5t-25 41.5v232h-550q-28 0 -44 19.5t-16 52.5z" />
<glyph unicode="&#xad;" horiz-adv-x="968" d="M96 492q0 31 16.5 52t43.5 21h655q24 0 42.5 -21.5t18.5 -51.5q0 -31 -18.5 -51.5t-42.5 -20.5h-655q-28 0 -44 19.5t-16 52.5z" />
<glyph unicode="&#xae;" horiz-adv-x="1454" d="M98 733q0 132 38.5 244.5t102.5 189.5t147.5 131.5t171 79.5t175.5 25t175.5 -25.5t168.5 -80t143 -131t99 -186.5t37 -239q0 -132 -38.5 -244.5t-102.5 -189t-147.5 -131t-171 -79.5t-175.5 -25t-175.5 25.5t-168.5 80t-143 130.5t-99 186t-37 239zM199 733 q0 -247 144 -404t378 -157q235 0 384.5 158t149.5 411q0 247 -144 404.5t-378 157.5q-235 0 -384.5 -158.5t-149.5 -411.5zM526 395v709q0 14 10.5 25.5t26.5 11.5h185q101 0 163 -51.5t62 -167.5q0 -91 -37 -143t-100 -68l133 -285q2 -6 2 -14q0 -22 -19 -40t-41 -18 q-21 0 -39 37l-141 303h-98v-299q0 -18 -15 -28.5t-36 -10.5q-23 0 -39.5 10.5t-16.5 28.5zM633 784h115q118 0 118 127q0 133 -118 133h-115v-260z" />
<glyph unicode="&#xaf;" horiz-adv-x="555" d="M0 1348q0 27 16.5 45t42.5 18h435q24 0 42.5 -18.5t18.5 -44.5q0 -27 -18.5 -44.5t-42.5 -17.5h-435q-26 0 -42.5 17t-16.5 45z" />
<glyph unicode="&#xb0;" horiz-adv-x="845" d="M59 1204q0 149 107.5 259t255.5 110q147 0 255.5 -109t108.5 -260q0 -147 -109.5 -260t-254.5 -113q-146 0 -254.5 112.5t-108.5 260.5zM172 1204q0 -102 74 -181t176 -79q103 0 177.5 79t74.5 181q0 99 -74.5 177.5t-177.5 78.5q-102 0 -176 -78t-74 -178z" />
<glyph unicode="&#xb1;" horiz-adv-x="962" d="M94 174q0 31 17 52.5t43 21.5h655q24 0 42.5 -22t18.5 -52q0 -31 -18.5 -51.5t-42.5 -20.5h-655q-26 0 -43 20t-17 52zM94 731q0 31 17 52.5t43 21.5h256v246q0 24 21.5 42.5t51.5 18.5q31 0 51.5 -18.5t20.5 -42.5v-246h254q24 0 42.5 -22t18.5 -52q0 -31 -18.5 -51.5 t-42.5 -20.5h-254v-247q0 -26 -20 -43t-52 -17q-31 0 -52 17t-21 43v247h-256q-26 0 -43 20t-17 52z" />
<glyph unicode="&#xb2;" horiz-adv-x="634" d="M61 754v102q0 48 40 94.5t97 84l114 75t97 81t40 87.5q0 41 -33.5 73.5t-96.5 32.5q-54 0 -86 -25t-32 -77q0 -18 -18 -31.5t-48 -13.5q-55 0 -55 66q0 87 69.5 140.5t169.5 53.5q106 0 179 -59.5t73 -155.5q0 -53 -28 -101.5t-70.5 -82.5t-92 -67.5t-92 -58.5t-70.5 -54 t-28 -56v-41h347q17 0 29 -15.5t12 -37.5t-12 -38.5t-29 -16.5h-418q-21 0 -39.5 11.5t-18.5 29.5z" />
<glyph unicode="&#xb3;" horiz-adv-x="649" d="M53 897q0 30 13 39.5t45 9.5q37 0 51 -9.5t14 -33.5q0 -37 35.5 -62.5t103.5 -25.5q74 0 109 30t35 97v19q0 61 -37.5 86.5t-106.5 25.5q-41 0 -41 47q0 51 41 51q60 0 90.5 23.5t30.5 89.5q0 56 -29 80.5t-88 24.5q-124 0 -124 -82q0 -47 -58 -47q-40 0 -51.5 10.5 t-11.5 42.5q0 31 11.5 60.5t37 58.5t76.5 47t120 18q238 0 238 -192q0 -64 -25.5 -112t-68.5 -67q119 -42 119 -165v-19q0 -122 -73.5 -178.5t-195.5 -56.5q-126 0 -193 58t-67 132z" />
<glyph unicode="&#xb4;" horiz-adv-x="344" d="M0 1266q0 30 27 45l239 127q12 4 21 4q25 0 41 -21.5t16 -48.5q0 -34 -29 -49l-231 -119q-16 -8 -23 -8q-25 0 -43 22t-18 48z" />
<glyph unicode="&#xb5;" horiz-adv-x="1017" d="M135 -410v1319q0 24 25 43t59 19q33 0 59.5 -19.5t26.5 -42.5v-561q0 -69 74 -140t162 -71q89 0 157 74t68 166v532q0 26 25.5 44t58.5 18q37 0 61.5 -18t24.5 -44v-532q0 -161 -116 -277t-281 -116q-78 0 -144.5 33.5t-105.5 84.5v-512q0 -23 -21.5 -41t-50.5 -18 q-35 0 -58.5 17.5t-23.5 41.5z" />
<glyph unicode="&#xb6;" horiz-adv-x="1087" d="M59 1051v24q0 112 30.5 195t86.5 131.5t127 72t158 23.5h420q25 0 43 -16t18 -45v-1377q0 -29 -18 -44t-43 -15q-26 0 -44 15t-18 44v1340h-162v-1338q0 -29 -18 -45t-43 -16t-43 16t-18 45v566h-74q-87 0 -158 23.5t-127 72.5t-86.5 132.5t-30.5 195.5z" />
<glyph unicode="&#xb7;" horiz-adv-x="385" d="M82 614q0 42 33 72.5t80 30.5q44 0 76 -31t32 -72t-32 -71.5t-76 -30.5q-47 0 -80 30t-33 72z" />
<glyph unicode="&#xb8;" horiz-adv-x="354" d="M0 -379q0 15 10.5 36t26.5 21q3 0 39.5 -14t75.5 -14q53 0 79.5 21t26.5 55q0 74 -121 84l-88 6l53 202h93l-37 -137q98 -3 147 -45t49 -104q0 -65 -48.5 -115.5t-141.5 -50.5q-55 0 -109.5 14.5t-54.5 40.5z" />
<glyph unicode="&#xb9;" horiz-adv-x="358" d="M29 1337q0 31 24 45l123 105q12 12 33 12q20 0 36.5 -11.5t16.5 -29.5v-704q0 -20 -17.5 -30.5t-43.5 -10.5t-44 10.5t-18 30.5v585l-41 -41q-12 -10 -26 -10q-18 0 -30.5 15t-12.5 34z" />
<glyph unicode="&#xba;" horiz-adv-x="677" d="M72 1143v127q0 104 78.5 181t187.5 77q108 0 188 -76.5t80 -181.5v-127q0 -103 -80.5 -181.5t-187.5 -78.5t-186.5 78.5t-79.5 181.5zM199 1143q0 -58 41 -103t98 -45q58 0 100.5 45t42.5 103v127q0 57 -42 100t-101 43q-57 0 -98 -43t-41 -100v-127z" />
<glyph unicode="&#xbb;" horiz-adv-x="888" d="M82 236q0 13 6 22l166 309l-166 310q-6 12 -6 22q0 30 30.5 58t69.5 28t56 -27l172 -321q28 -54 28 -70q0 -8 -2.5 -16.5t-5 -14t-9.5 -18.5t-11 -20l-172 -320q-14 -26 -54 -26q-38 0 -70 27.5t-32 56.5zM465 236q0 13 6 22l168 309l-168 310q-6 12 -6 22q0 29 31 57.5 t69 28.5q43 0 56 -27l174 -321q28 -54 28 -70q0 -8 -2.5 -16.5t-5 -14t-9.5 -18.5t-11 -20l-174 -320q-14 -26 -54 -26q-38 0 -70 27.5t-32 56.5z" />
<glyph unicode="&#xbc;" horiz-adv-x="1267" d="M55 1337q0 12 7.5 25.5t17.5 19.5l123 105q12 12 33 12q20 0 36.5 -11.5t16.5 -29.5v-704q0 -20 -18 -30.5t-44 -10.5t-43.5 10.5t-17.5 30.5v585l-41 -41q-13 -10 -27 -10q-18 0 -30.5 15t-12.5 34zM145 0q0 13 7 27l768 1519q16 31 51 31q26 0 47.5 -20t21.5 -48 q0 -13 -6 -28l-766 -1510q-14 -32 -57 -32q-28 0 -47 18t-19 43zM666 219q0 13 6 25l284 508q19 32 56 32q20 0 40.5 -13.5t20.5 -33.5q0 -6 -4 -18l-246 -430h176v135q0 19 18 29t42 10q27 0 45 -10t18 -29v-135h60q19 0 30 -17.5t11 -40.5q0 -22 -13 -39.5t-28 -17.5h-60 v-133q0 -20 -18 -30.5t-45 -10.5q-24 0 -42 10.5t-18 30.5v133h-290q-19 0 -31 12t-12 33z" />
<glyph unicode="&#xbd;" horiz-adv-x="1280" d="M53 1337q0 12 7.5 25.5t17.5 19.5l123 105q12 12 32 12t37 -11.5t17 -29.5v-704q0 -20 -18 -30.5t-44 -10.5t-43.5 10.5t-17.5 30.5v585l-41 -41q-12 -10 -27 -10q-18 0 -30.5 15t-12.5 34zM111 0q0 15 6 27l768 1519q15 31 51 31q26 0 48 -20t22 -48q0 -11 -7 -28 l-766 -1510q-14 -32 -57 -32q-27 0 -46 18t-19 43zM705 41v104q0 47 40 93t97 84t113.5 75t96.5 80.5t40 87.5q0 42 -33.5 74.5t-95.5 32.5q-54 0 -86.5 -25.5t-32.5 -77.5q0 -18 -18 -31.5t-48 -13.5q-55 0 -55 66q0 88 69.5 141t170.5 53q106 0 178.5 -59.5t72.5 -155.5 q0 -53 -28 -101.5t-70.5 -82t-91.5 -67t-91.5 -58.5t-70.5 -54t-28 -56v-41h346q17 0 29 -16t12 -38t-12 -38.5t-29 -16.5h-418q-21 0 -39 11.5t-18 29.5z" />
<glyph unicode="&#xbe;" horiz-adv-x="1538" d="M61 897q0 30 13 39.5t45 9.5q37 0 51 -9.5t14 -33.5q0 -37 36 -62.5t104 -25.5q74 0 108.5 30t34.5 97v19q0 61 -37 86.5t-106 25.5q-41 0 -41 47q0 51 41 51q60 0 90 23.5t30 89.5q0 56 -28.5 80.5t-87.5 24.5q-125 0 -125 -82q0 -47 -58 -47q-40 0 -51.5 10.5 t-11.5 42.5q0 31 11.5 60.5t37.5 58.5t77 47t120 18q237 0 237 -192q0 -64 -25.5 -112t-68.5 -67q119 -42 119 -165v-19q0 -122 -73 -178.5t-195 -56.5q-126 0 -193.5 58.5t-67.5 131.5zM403 0q0 13 7 27l768 1519q16 31 51 31q26 0 47.5 -20t21.5 -48q0 -13 -6 -28 l-766 -1510q-14 -32 -57 -32q-28 0 -47 18t-19 43zM936 219q0 13 6 25l285 508q19 32 55 32q20 0 40.5 -13.5t20.5 -33.5q0 -6 -4 -18l-245 -430h176v135q0 19 17.5 29t41.5 10q27 0 45.5 -10t18.5 -29v-135h59q19 0 30 -17.5t11 -40.5q0 -22 -13 -39.5t-28 -17.5h-59v-133 q0 -20 -18.5 -30.5t-45.5 -10.5q-24 0 -41.5 10.5t-17.5 30.5v133h-291q-19 0 -31 12t-12 33z" />
<glyph unicode="&#xbf;" horiz-adv-x="835" d="M61 346q0 69 19.5 131t54 110t66 82t71.5 71t54 53q54 52 67 113.5t13 187.5q0 53 69 53q34 0 50 -17.5t16 -58.5q0 -147 -26 -221t-73 -125q-18 -19 -55 -52t-64 -60t-56 -65t-44.5 -85t-15.5 -101q0 -113 67.5 -175t190.5 -62q63 0 109.5 17.5t66 38t41 38t41.5 17.5 q26 0 47 -18.5t21 -49.5q0 -62 -96.5 -121t-235.5 -59q-187 0 -292.5 101t-105.5 257zM367 1411q0 43 31 75t75 32q45 0 76 -32t31 -75q0 -44 -31.5 -76t-75.5 -32q-43 0 -74.5 32t-31.5 76z" />
<glyph unicode="&#xc0;" horiz-adv-x="1126" d="M35 72q0 4 4 16l418 1362q9 29 38.5 44t67.5 15q37 0 67.5 -15.5t39.5 -43.5l417 -1362q0 -3 1.5 -7.5t1.5 -6.5q0 -30 -34 -52t-73 -22q-49 0 -61 39l-91 305h-538l-90 -305q-12 -39 -64 -39q-37 0 -70.5 21t-33.5 51zM332 485h459l-228 770zM377 1886q0 26 16.5 48 t40.5 22q9 0 21 -4l239 -127q27 -13 27 -45q0 -26 -18.5 -48t-43.5 -22q-6 0 -22 8l-231 119q-29 15 -29 49z" />
<glyph unicode="&#xc1;" horiz-adv-x="1126" d="M35 72q0 4 4 16l418 1362q9 29 38.5 44t67.5 15q37 0 67.5 -15.5t39.5 -43.5l417 -1362q0 -3 1.5 -7.5t1.5 -6.5q0 -30 -34 -52t-73 -22q-49 0 -61 39l-91 305h-538l-90 -305q-12 -39 -64 -39q-37 0 -70.5 21t-33.5 51zM332 485h459l-228 770zM422 1780q0 30 27 45 l239 127q12 4 21 4q25 0 41 -21.5t16 -48.5q0 -34 -29 -49l-231 -119q-16 -8 -23 -8q-25 0 -43 22t-18 48z" />
<glyph unicode="&#xc2;" horiz-adv-x="1126" d="M35 72q0 4 4 16l418 1362q9 29 38.5 44t67.5 15q37 0 67.5 -15.5t39.5 -43.5l417 -1362q0 -3 1.5 -7.5t1.5 -6.5q0 -30 -34 -52t-73 -22q-49 0 -61 39l-91 305h-538l-90 -305q-12 -39 -64 -39q-37 0 -70.5 21t-33.5 51zM283 1778q0 38 30 53l213 115q20 10 35 10 q18 0 35 -10l213 -113q33 -17 33 -57q0 -23 -13.5 -40.5t-33.5 -17.5q-3 0 -10.5 2.5l-10.5 3.5l-213 115l-213 -115q-9 -6 -18 -6q-19 0 -33 18.5t-14 41.5zM332 485h459l-228 770z" />
<glyph unicode="&#xc3;" horiz-adv-x="1126" d="M35 72q0 4 4 16l418 1362q9 29 38.5 44t67.5 15q37 0 67.5 -15.5t39.5 -43.5l417 -1362q0 -3 1.5 -7.5t1.5 -6.5q0 -30 -34 -52t-73 -22q-49 0 -61 39l-91 305h-538l-90 -305q-12 -39 -64 -39q-37 0 -70.5 21t-33.5 51zM236 1817q0 42 33.5 72t72 41.5t72.5 11.5 q56 0 139 -34t137 -34q39 0 68.5 14t48.5 27.5t33 13.5q23 0 36 -19.5t13 -37.5q0 -34 -19 -59.5t-47.5 -38.5t-55.5 -19t-50 -6q-61 0 -143.5 34t-135.5 34q-38 0 -68.5 -15t-51.5 -30t-35 -15q-23 0 -35 20t-12 40zM332 485h459l-228 770z" />
<glyph unicode="&#xc4;" horiz-adv-x="1126" d="M35 72q0 4 4 16l418 1362q9 29 38.5 44t67.5 15q37 0 67.5 -15.5t39.5 -43.5l417 -1362q0 -3 1.5 -7.5t1.5 -6.5q0 -30 -34 -52t-73 -22q-49 0 -61 39l-91 305h-538l-90 -305q-12 -39 -64 -39q-37 0 -70.5 21t-33.5 51zM332 485h459l-228 770zM346 1804q0 35 24.5 59.5 t59.5 24.5q34 0 58 -24.5t24 -59.5t-24 -60.5t-58 -25.5q-35 0 -59.5 25.5t-24.5 60.5zM614 1804q0 35 23.5 59.5t58.5 24.5t58.5 -24.5t23.5 -59.5q0 -36 -23.5 -61t-58.5 -25t-58.5 25t-23.5 61z" />
<glyph unicode="&#xc5;" horiz-adv-x="1126" d="M35 72q0 4 4 16l418 1362q9 29 38.5 44t67.5 15q37 0 67.5 -15.5t39.5 -43.5l417 -1362q0 -3 1.5 -7.5t1.5 -6.5q0 -30 -34 -52t-73 -22q-49 0 -61 39l-91 305h-538l-90 -305q-12 -39 -64 -39q-37 0 -70.5 21t-33.5 51zM332 485h459l-228 770zM369 1892q0 77 56 136 t136 59q75 0 134 -59.5t59 -135.5q0 -78 -59 -138t-134 -60q-79 0 -135.5 59.5t-56.5 138.5zM446 1892q0 -45 34.5 -82.5t80.5 -37.5q45 0 79 37.5t34 82.5q0 42 -34 77.5t-79 35.5q-46 0 -80.5 -36t-34.5 -77z" />
<glyph unicode="&#xc6;" horiz-adv-x="1505" d="M139 72v979q0 95 22 171t61 127t94 84.5t118.5 48.5t138.5 15h828q29 0 44 -22.5t15 -53.5q0 -34 -15.5 -57t-43.5 -23h-477v-520h286q27 0 43.5 -21.5t16.5 -51.5q0 -28 -15.5 -49t-44.5 -21h-286v-522h477q28 0 43.5 -23t15.5 -57q0 -31 -15 -53.5t-44 -22.5h-572 q-32 0 -54.5 16t-22.5 45v617h-449v-606q0 -36 -16.5 -54t-69.5 -18q-39 0 -58.5 19.5t-19.5 52.5zM303 821h449v520h-179q-129 0 -199.5 -72t-70.5 -218v-230z" />
<glyph unicode="&#xc7;" horiz-adv-x="1087" d="M131 434v617q0 118 34.5 206.5t96 139.5t139 75.5t170.5 24.5q201 0 322 -101t121 -255q0 -56 -20 -75t-66 -19q-83 0 -86 59q-1 30 -7 56.5t-23.5 61t-44.5 59t-77 41.5t-115 17q-272 0 -272 -290v-617q0 -291 279 -291q55 0 97 10.5t69 32t44.5 42.5t27.5 54t14 53 t8 52q6 59 86 59q45 0 65.5 -20t20.5 -76q0 -140 -101 -240t-272 -118l-29 -111q98 -3 147.5 -45t49.5 -104q0 -65 -48.5 -115.5t-142.5 -50.5q-55 0 -109 14.5t-54 40.5q0 15 10.5 36t26.5 21q3 0 39 -14t75 -14q53 0 80 21t27 55q0 74 -121 84l-88 6l45 172 q-90 3 -163.5 29t-131.5 77.5t-90.5 138t-32.5 201.5z" />
<glyph unicode="&#xc8;" horiz-adv-x="1052" d="M145 61v1375q0 29 23 45t55 16h729q29 0 44.5 -22.5t15.5 -53.5q0 -33 -16.5 -56.5t-43.5 -23.5h-635v-520h320q27 0 43 -21.5t16 -51.5q0 -28 -15 -49t-44 -21h-320v-522h635q27 0 43.5 -23.5t16.5 -56.5q0 -31 -15.5 -53.5t-44.5 -22.5h-729q-32 0 -55 16t-23 45z M401 1886q0 26 17 48t41 22q8 0 20 -4l240 -127q26 -13 26 -45q0 -26 -18 -48t-43 -22q-6 0 -22 8l-232 119q-29 15 -29 49z" />
<glyph unicode="&#xc9;" horiz-adv-x="1052" d="M145 61v1375q0 29 23 45t55 16h729q29 0 44.5 -22.5t15.5 -53.5q0 -33 -16.5 -56.5t-43.5 -23.5h-635v-520h320q27 0 43 -21.5t16 -51.5q0 -28 -15 -49t-44 -21h-320v-522h635q27 0 43.5 -23.5t16.5 -56.5q0 -31 -15.5 -53.5t-44.5 -22.5h-729q-32 0 -55 16t-23 45z M426 1780q0 30 27 45l239 127q12 4 21 4q25 0 41 -21.5t16 -48.5q0 -34 -29 -49l-231 -119q-16 -8 -23 -8q-25 0 -43 22t-18 48z" />
<glyph unicode="&#xca;" horiz-adv-x="1052" d="M145 61v1375q0 29 23 45t55 16h729q29 0 44.5 -22.5t15.5 -53.5q0 -33 -16.5 -56.5t-43.5 -23.5h-635v-520h320q27 0 43 -21.5t16 -51.5q0 -28 -15 -49t-44 -21h-320v-522h635q27 0 43.5 -23.5t16.5 -56.5q0 -31 -15.5 -53.5t-44.5 -22.5h-729q-32 0 -55 16t-23 45z M305 1778q0 38 31 53l213 115q20 10 35 10q17 0 34 -10l213 -113q33 -17 33 -57q0 -23 -13.5 -40.5t-33.5 -17.5q-3 0 -10 2.5t-10 3.5l-213 115l-213 -115q-9 -6 -19 -6q-19 0 -33 18.5t-14 41.5z" />
<glyph unicode="&#xcb;" horiz-adv-x="1052" d="M145 61v1375q0 29 23 45t55 16h729q29 0 44.5 -22.5t15.5 -53.5q0 -33 -16.5 -56.5t-43.5 -23.5h-635v-520h320q27 0 43 -21.5t16 -51.5q0 -28 -15 -49t-44 -21h-320v-522h635q27 0 43.5 -23.5t16.5 -56.5q0 -31 -15.5 -53.5t-44.5 -22.5h-729q-32 0 -55 16t-23 45z M362 1804q0 35 24.5 59.5t59.5 24.5q34 0 58 -24.5t24 -59.5t-24 -60.5t-58 -25.5q-35 0 -59.5 25.5t-24.5 60.5zM631 1804q0 35 23.5 59.5t58.5 24.5t58.5 -24.5t23.5 -59.5q0 -36 -23.5 -61t-58.5 -25t-58.5 25t-23.5 61z" />
<glyph unicode="&#xcc;" horiz-adv-x="462" d="M51 1886q0 26 17 48t41 22q8 0 20 -4l240 -127q26 -13 26 -45q0 -26 -18 -48t-43 -22q-7 0 -23 8l-231 119q-29 15 -29 49zM145 61v1377q0 29 25.5 44t60.5 15t60.5 -15t25.5 -44v-1377q0 -29 -25.5 -45t-60.5 -16t-60.5 16t-25.5 45z" />
<glyph unicode="&#xcd;" horiz-adv-x="462" d="M66 1780q0 31 26 45l240 127q12 4 20 4q25 0 41.5 -22t16.5 -48q0 -34 -29 -49l-231 -119q-16 -8 -23 -8q-25 0 -43 22t-18 48zM145 61v1377q0 29 25.5 44t60.5 15t60.5 -15t25.5 -44v-1377q0 -29 -25.5 -45t-60.5 -16t-60.5 16t-25.5 45z" />
<glyph unicode="&#xce;" horiz-adv-x="462" d="M-47 1778q0 38 31 53l213 115q20 10 34 10q18 0 35 -10l213 -113q33 -17 33 -57q0 -23 -13.5 -40.5t-33.5 -17.5q-3 0 -10.5 2.5l-10.5 3.5l-213 115l-213 -115q-9 -6 -18 -6q-19 0 -33 18.5t-14 41.5zM145 61v1377q0 29 25.5 44t60.5 15t60.5 -15t25.5 -44v-1377 q0 -29 -25.5 -45t-60.5 -16t-60.5 16t-25.5 45z" />
<glyph unicode="&#xcf;" horiz-adv-x="462" d="M16 1804q0 35 24.5 59.5t59.5 24.5q34 0 58 -24.5t24 -59.5t-24 -60.5t-58 -25.5q-35 0 -59.5 25.5t-24.5 60.5zM145 61v1377q0 29 25.5 44t60.5 15t60.5 -15t25.5 -44v-1377q0 -29 -25.5 -45t-60.5 -16t-60.5 16t-25.5 45zM285 1804q0 35 23.5 59.5t58.5 24.5 t58.5 -24.5t23.5 -59.5q0 -36 -23.5 -61t-58.5 -25t-58.5 25t-23.5 61z" />
<glyph unicode="&#xd0;" horiz-adv-x="1175" d="M-6 784q0 28 13.5 48t37.5 20h117v586q0 24 22 41.5t56 17.5h362q96 0 174 -24.5t139.5 -75.5t95 -139t33.5 -207v-605q0 -119 -33.5 -207t-95 -139t-139.5 -75.5t-174 -24.5h-362q-34 0 -56 17.5t-22 41.5v660h-117q-24 0 -37.5 18.5t-13.5 46.5zM334 156h268 q129 0 199.5 72t70.5 218v605q0 146 -70.5 218t-199.5 72h-268v-489h211q23 0 38 -20.5t15 -47.5t-15 -46t-38 -19h-211v-563z" />
<glyph unicode="&#xd1;" horiz-adv-x="1189" d="M145 61v1377q0 30 24.5 44.5t61.5 14.5q44 0 73 -25.5t58 -82.5l510 -998v1047q0 29 25.5 44t60.5 15t60.5 -15t25.5 -44v-1377q0 -29 -25.5 -45t-60.5 -16q-65 0 -108 78l-533 1030v-1047q0 -29 -25.5 -45t-60.5 -16t-60.5 16t-25.5 45zM260 1817q0 42 33.5 72t72 41.5 t72.5 11.5q56 0 139.5 -34t137.5 -34q39 0 68 14t48 27.5t33 13.5q23 0 36 -19.5t13 -37.5q0 -34 -19 -59.5t-47.5 -38.5t-55.5 -19t-50 -6q-61 0 -143 34t-135 34q-38 0 -69 -15t-52 -30t-35 -15q-23 0 -35 20t-12 40z" />
<glyph unicode="&#xd2;" d="M131 434v617q0 119 33.5 206.5t94 139t138.5 76t174 24.5t174 -24.5t139.5 -75.5t95.5 -139t34 -207v-617q0 -119 -34 -207t-95.5 -139t-139.5 -75.5t-174 -24.5t-174 24.5t-138.5 76t-94 139t-33.5 206.5zM303 434q0 -146 69.5 -218.5t198.5 -72.5t200 72.5t71 218.5 v617q0 146 -71 218t-200 72t-198.5 -72t-69.5 -218v-617zM387 1886q0 26 16.5 48t40.5 22q9 0 21 -4l240 -127q26 -13 26 -45q0 -26 -18 -48t-43 -22q-7 0 -23 8l-231 119q-29 15 -29 49z" />
<glyph unicode="&#xd3;" d="M131 434v617q0 119 33.5 206.5t94 139t138.5 76t174 24.5t174 -24.5t139.5 -75.5t95.5 -139t34 -207v-617q0 -119 -34 -207t-95.5 -139t-139.5 -75.5t-174 -24.5t-174 24.5t-138.5 76t-94 139t-33.5 206.5zM303 434q0 -146 69.5 -218.5t198.5 -72.5t200 72.5t71 218.5 v617q0 146 -71 218t-200 72t-198.5 -72t-69.5 -218v-617zM436 1780q0 30 27 45l239 127q12 4 21 4q25 0 41 -21.5t16 -48.5q0 -35 -28 -49l-232 -119q-16 -8 -22 -8q-25 0 -43.5 22t-18.5 48z" />
<glyph unicode="&#xd4;" d="M131 434v617q0 119 33.5 206.5t94 139t138.5 76t174 24.5t174 -24.5t139.5 -75.5t95.5 -139t34 -207v-617q0 -119 -34 -207t-95.5 -139t-139.5 -75.5t-174 -24.5t-174 24.5t-138.5 76t-94 139t-33.5 206.5zM293 1778q0 38 31 53l213 115q20 10 34 10q18 0 35 -10 l213 -113q33 -17 33 -57q0 -23 -13.5 -40.5t-33.5 -17.5q-3 0 -11 2.5t-10 3.5l-213 115l-213 -115q-9 -6 -18 -6q-19 0 -33 18.5t-14 41.5zM303 434q0 -146 69.5 -218.5t198.5 -72.5t200 72.5t71 218.5v617q0 146 -71 218t-200 72t-198.5 -72t-69.5 -218v-617z" />
<glyph unicode="&#xd5;" d="M131 434v617q0 119 33.5 206.5t94 139t138.5 76t174 24.5t174 -24.5t139.5 -75.5t95.5 -139t34 -207v-617q0 -119 -34 -207t-95.5 -139t-139.5 -75.5t-174 -24.5t-174 24.5t-138.5 76t-94 139t-33.5 206.5zM246 1817q0 42 33.5 72t72 41.5t72.5 11.5q56 0 139 -34 t137 -34q39 0 68.5 14t48.5 27.5t33 13.5q23 0 36 -19.5t13 -37.5q0 -34 -19 -59.5t-47.5 -38.5t-55.5 -19t-50 -6q-61 0 -143 34t-135 34q-38 0 -69 -15t-52 -30t-35 -15q-23 0 -35 20t-12 40zM303 434q0 -146 69.5 -218.5t198.5 -72.5t200 72.5t71 218.5v617 q0 146 -71 218t-200 72t-198.5 -72t-69.5 -218v-617z" />
<glyph unicode="&#xd6;" d="M131 434v617q0 119 33.5 206.5t94 139t138.5 76t174 24.5t174 -24.5t139.5 -75.5t95.5 -139t34 -207v-617q0 -119 -34 -207t-95.5 -139t-139.5 -75.5t-174 -24.5t-174 24.5t-138.5 76t-94 139t-33.5 206.5zM303 434q0 -146 69.5 -218.5t198.5 -72.5t200 72.5t71 218.5 v617q0 146 -71 218t-200 72t-198.5 -72t-69.5 -218v-617zM356 1804q0 35 24.5 59.5t59.5 24.5q34 0 58 -24.5t24 -59.5t-24 -60.5t-58 -25.5q-35 0 -59.5 25.5t-24.5 60.5zM625 1804q0 35 23.5 59.5t58.5 24.5t58 -24t23 -60t-23 -61t-58 -25t-58.5 25t-23.5 61z" />
<glyph unicode="&#xd7;" horiz-adv-x="819" d="M111 344q0 22 14 39l190 180l-188 178q-16 16 -16 41q0 30 24.5 55t54.5 25q25 0 41 -16l179 -178l178 178q16 16 41 16q31 0 55.5 -24.5t24.5 -55.5q0 -24 -17 -41l-186 -178l188 -180q17 -20 17 -39q0 -29 -25.5 -54.5t-56.5 -25.5q-21 0 -39 15l-180 182l-181 -182 q-18 -15 -39 -15q-29 0 -54 25.5t-25 54.5z" />
<glyph unicode="&#xd8;" d="M127 0q0 19 6 27l66 131q-68 108 -68 276v617q0 119 33.5 206.5t94 139t138.5 76t174 24.5q158 0 271 -70l59 119q15 31 49 31q26 0 49 -20t23 -48q0 -15 -8 -28l-74 -148q74 -107 74 -282v-617q0 -119 -34 -207t-95.5 -139t-139.5 -75.5t-174 -24.5q-169 0 -276 71 l-45 -88q-14 -32 -57 -32q-29 0 -47.5 18t-18.5 43zM303 434q0 -27 4 -63l457 905q-68 65 -193 65q-129 0 -198.5 -72t-69.5 -218v-617zM373 215q66 -72 198 -72q129 0 200 72.5t71 218.5v617q0 39 -6 77z" />
<glyph unicode="&#xd9;" horiz-adv-x="1173" d="M139 434v1004q0 29 25.5 44t60.5 15t60.5 -15t25.5 -44v-1004q0 -146 71.5 -218.5t203.5 -72.5t204 72.5t72 218.5v1004q0 29 24.5 44t61.5 15q34 0 60 -15t26 -44v-1004q0 -119 -34 -207t-96 -139t-141 -75.5t-177 -24.5t-177 24.5t-140.5 76t-95.5 139t-34 206.5z M395 1886q0 26 17 48t41 22q8 0 20 -4l240 -127q26 -13 26 -45q0 -26 -18 -48t-43 -22q-7 0 -23 8l-231 119q-29 15 -29 49z" />
<glyph unicode="&#xda;" horiz-adv-x="1173" d="M139 434v1004q0 29 25.5 44t60.5 15t60.5 -15t25.5 -44v-1004q0 -146 71.5 -218.5t203.5 -72.5t204 72.5t72 218.5v1004q0 29 24.5 44t61.5 15q34 0 60 -15t26 -44v-1004q0 -119 -34 -207t-96 -139t-141 -75.5t-177 -24.5t-177 24.5t-140.5 76t-95.5 139t-34 206.5z M436 1780q0 30 27 45l239 127q12 4 21 4q25 0 41 -21.5t16 -48.5q0 -35 -28 -49l-232 -119q-16 -8 -22 -8q-25 0 -43.5 22t-18.5 48z" />
<glyph unicode="&#xdb;" horiz-adv-x="1173" d="M139 434v1004q0 29 25.5 44t60.5 15t60.5 -15t25.5 -44v-1004q0 -146 71.5 -218.5t203.5 -72.5t204 72.5t72 218.5v1004q0 29 24.5 44t61.5 15q34 0 60 -15t26 -44v-1004q0 -119 -34 -207t-96 -139t-141 -75.5t-177 -24.5t-177 24.5t-140.5 76t-95.5 139t-34 206.5z M301 1778q0 38 31 53l213 115q20 10 35 10q17 0 34 -10l213 -113q33 -17 33 -57q0 -23 -13.5 -40.5t-33.5 -17.5q-3 0 -10 2.5t-10 3.5l-213 115l-213 -115q-9 -6 -19 -6q-19 0 -33 18.5t-14 41.5z" />
<glyph unicode="&#xdc;" horiz-adv-x="1173" d="M139 434v1004q0 29 25.5 44t60.5 15t60.5 -15t25.5 -44v-1004q0 -146 71.5 -218.5t203.5 -72.5t204 72.5t72 218.5v1004q0 29 24.5 44t61.5 15q34 0 60 -15t26 -44v-1004q0 -119 -34 -207t-96 -139t-141 -75.5t-177 -24.5t-177 24.5t-140.5 76t-95.5 139t-34 206.5z M369 1804q0 35 24.5 59.5t59.5 24.5q34 0 58 -24.5t24 -59.5t-24 -60.5t-58 -25.5q-35 0 -59.5 25.5t-24.5 60.5zM637 1804q0 35 23.5 59.5t58.5 24.5t58.5 -24.5t23.5 -59.5q0 -36 -23.5 -61t-58.5 -25t-58.5 25t-23.5 61z" />
<glyph unicode="&#xdd;" horiz-adv-x="1116" d="M35 1425q0 30 33.5 51t68.5 21q39 0 62 -45l360 -702l359 702q23 45 61 45q37 0 69.5 -21t32.5 -51q0 -15 -8 -34l-424 -791q-4 -6 -4 -20v-519q0 -29 -25.5 -45t-60.5 -16t-60.5 16t-25.5 45v519q0 11 -6 20l-424 791q-8 19 -8 34zM401 1780q0 30 27 45l240 127 q12 4 20 4q25 0 41 -21.5t16 -48.5q0 -35 -28 -49l-232 -119q-16 -8 -22 -8q-25 0 -43.5 22t-18.5 48z" />
<glyph unicode="&#xde;" horiz-adv-x="1026" d="M145 61v1391q0 27 23.5 43t58.5 16q40 0 64 -16.5t24 -42.5v-338q39 68 111 112t168 44q147 0 251.5 -97.5t104.5 -252.5v-293q0 -101 -50.5 -183.5t-129.5 -127t-166 -44.5q-94 0 -177.5 47t-111.5 115v-373q0 -24 -24.5 -42.5t-59.5 -18.5q-36 0 -61 18.5t-25 42.5z M315 616q0 -66 70.5 -128t169.5 -62q91 0 158 55t67 146v293q0 89 -66.5 142.5t-158.5 53.5q-97 0 -168.5 -55t-71.5 -141v-304z" />
<glyph unicode="&#xdf;" horiz-adv-x="1159" d="M12 903q0 27 15 47.5t39 20.5h139v213q0 81 20 149.5t61 123t112 85.5t165 31q161 0 262 -94.5t101 -278.5q0 -112 -38.5 -210t-105.5 -130q113 -22 208 -139t95 -272v-33q0 -111 -32.5 -200t-88 -144t-126 -84t-148.5 -29q-213 0 -213 98q0 30 12.5 56t34.5 26 q8 0 56.5 -17.5t97.5 -17.5q114 0 179 78t65 224v30q0 133 -74.5 223.5t-220.5 108.5q-38 7 -55 20.5t-17 51.5q0 20 5 32.5t17 19.5t21.5 10t30.5 7q46 5 78 30.5t47 65t20.5 75.5t5.5 77q0 123 -52.5 192.5t-156.5 69.5t-150 -66t-46 -169v-1125q0 -26 -26 -42.5 t-62 -16.5t-59 16.5t-23 42.5v779h-139q-24 0 -39 19t-15 46z" />
<glyph unicode="&#xe0;" horiz-adv-x="917" d="M57 256q0 83 34 140t100.5 88t149.5 44t196 13h98v43q0 48 -12.5 91.5t-38 80.5t-70.5 59.5t-104 22.5q-49 0 -90 -9.5t-62 -20.5t-41 -20.5t-31 -9.5q-29 0 -46 27.5t-17 58.5q0 46 93.5 82.5t197.5 36.5t181.5 -32.5t122 -89.5t66 -126t21.5 -149v-525 q0 -26 -23.5 -43.5t-60.5 -17.5q-34 0 -56 17.5t-22 43.5v82q-140 -159 -309 -159q-122 0 -199.5 69.5t-77.5 202.5zM229 274q0 -76 43.5 -114.5t114.5 -38.5q87 0 167.5 69t80.5 140v106h-72q-49 0 -86 -2t-77.5 -7.5t-69 -17t-53 -29t-36.5 -44.5t-12 -62zM262 1372 q0 26 16.5 48t40.5 22q9 0 21 -4l240 -127q26 -13 26 -45q0 -26 -18 -48t-43 -22q-7 0 -23 8l-231 119q-29 15 -29 49z" />
<glyph unicode="&#xe1;" horiz-adv-x="917" d="M57 256q0 83 34 140t100.5 88t149.5 44t196 13h98v43q0 48 -12.5 91.5t-38 80.5t-70.5 59.5t-104 22.5q-49 0 -90 -9.5t-62 -20.5t-41 -20.5t-31 -9.5q-29 0 -46 27.5t-17 58.5q0 46 93.5 82.5t197.5 36.5t181.5 -32.5t122 -89.5t66 -126t21.5 -149v-525 q0 -26 -23.5 -43.5t-60.5 -17.5q-34 0 -56 17.5t-22 43.5v82q-140 -159 -309 -159q-122 0 -199.5 69.5t-77.5 202.5zM229 274q0 -76 43.5 -114.5t114.5 -38.5q87 0 167.5 69t80.5 140v106h-72q-49 0 -86 -2t-77.5 -7.5t-69 -17t-53 -29t-36.5 -44.5t-12 -62zM279 1266 q0 31 26 45l240 127q12 4 20 4q25 0 41.5 -22t16.5 -48q0 -34 -29 -49l-232 -119q-16 -8 -22 -8q-25 0 -43 22t-18 48z" />
<glyph unicode="&#xe2;" horiz-adv-x="917" d="M57 256q0 83 34 140t100.5 88t149.5 44t196 13h98v43q0 48 -12.5 91.5t-38 80.5t-70.5 59.5t-104 22.5q-49 0 -90 -9.5t-62 -20.5t-41 -20.5t-31 -9.5q-29 0 -46 27.5t-17 58.5q0 46 93.5 82.5t197.5 36.5t181.5 -32.5t122 -89.5t66 -126t21.5 -149v-525 q0 -26 -23.5 -43.5t-60.5 -17.5q-34 0 -56 17.5t-22 43.5v82q-140 -159 -309 -159q-122 0 -199.5 69.5t-77.5 202.5zM154 1264q0 38 30 53l213 115q20 10 35 10q18 0 35 -10l213 -113q33 -17 33 -57q0 -23 -13.5 -40.5t-33.5 -17.5q-3 0 -11 2.5t-10 3.5l-213 115l-213 -115 q-9 -6 -18 -6q-19 0 -33 18.5t-14 41.5zM229 274q0 -76 43.5 -114.5t114.5 -38.5q87 0 167.5 69t80.5 140v106h-72q-49 0 -86 -2t-77.5 -7.5t-69 -17t-53 -29t-36.5 -44.5t-12 -62z" />
<glyph unicode="&#xe3;" horiz-adv-x="917" d="M57 256q0 83 34 140t100.5 88t149.5 44t196 13h98v43q0 48 -12.5 91.5t-38 80.5t-70.5 59.5t-104 22.5q-49 0 -90 -9.5t-62 -20.5t-41 -20.5t-31 -9.5q-29 0 -46 27.5t-17 58.5q0 46 93.5 82.5t197.5 36.5t181.5 -32.5t122 -89.5t66 -126t21.5 -149v-525 q0 -26 -23.5 -43.5t-60.5 -17.5q-34 0 -56 17.5t-22 43.5v82q-140 -159 -309 -159q-122 0 -199.5 69.5t-77.5 202.5zM109 1303q0 42 33.5 71.5t72 41t72.5 11.5q56 0 139 -33.5t137 -33.5q39 0 68.5 14t48.5 27.5t33 13.5q23 0 36 -19.5t13 -37.5q0 -34 -19 -59.5 t-47.5 -38.5t-55.5 -19t-50 -6q-61 0 -143.5 34t-135.5 34q-38 0 -68.5 -15t-51.5 -30t-35 -15q-23 0 -35 20t-12 40zM229 274q0 -76 43.5 -114.5t114.5 -38.5q87 0 167.5 69t80.5 140v106h-72q-49 0 -86 -2t-77.5 -7.5t-69 -17t-53 -29t-36.5 -44.5t-12 -62z" />
<glyph unicode="&#xe4;" horiz-adv-x="917" d="M57 256q0 83 34 140t100.5 88t149.5 44t196 13h98v43q0 48 -12.5 91.5t-38 80.5t-70.5 59.5t-104 22.5q-49 0 -90 -9.5t-62 -20.5t-41 -20.5t-31 -9.5q-29 0 -46 27.5t-17 58.5q0 46 93.5 82.5t197.5 36.5t181.5 -32.5t122 -89.5t66 -126t21.5 -149v-525 q0 -26 -23.5 -43.5t-60.5 -17.5q-34 0 -56 17.5t-22 43.5v82q-140 -159 -309 -159q-122 0 -199.5 69.5t-77.5 202.5zM217 1290q0 35 24.5 59.5t59.5 24.5q34 0 58 -24.5t24 -59.5t-24 -60.5t-58 -25.5q-35 0 -59.5 25.5t-24.5 60.5zM229 274q0 -76 43.5 -114.5t114.5 -38.5 q87 0 167.5 69t80.5 140v106h-72q-49 0 -86 -2t-77.5 -7.5t-69 -17t-53 -29t-36.5 -44.5t-12 -62zM485 1290q0 35 23.5 59.5t58.5 24.5t58.5 -24.5t23.5 -59.5q0 -36 -23.5 -61t-58.5 -25t-58.5 25t-23.5 61z" />
<glyph unicode="&#xe5;" horiz-adv-x="917" d="M57 256q0 83 34 140t100.5 88t149.5 44t196 13h98v43q0 48 -12.5 91.5t-38 80.5t-70.5 59.5t-104 22.5q-49 0 -90 -9.5t-62 -20.5t-41 -20.5t-31 -9.5q-29 0 -46 27.5t-17 58.5q0 46 93.5 82.5t197.5 36.5t181.5 -32.5t122 -89.5t66 -126t21.5 -149v-525 q0 -26 -23.5 -43.5t-60.5 -17.5q-34 0 -56 17.5t-22 43.5v82q-140 -159 -309 -159q-122 0 -199.5 69.5t-77.5 202.5zM229 274q0 -76 43.5 -114.5t114.5 -38.5q87 0 167.5 69t80.5 140v106h-72q-49 0 -86 -2t-77.5 -7.5t-69 -17t-53 -29t-36.5 -44.5t-12 -62zM244 1378 q0 77 56 136t136 59q75 0 134 -59.5t59 -135.5q0 -78 -59 -138t-134 -60q-79 0 -135.5 59.5t-56.5 138.5zM322 1378q0 -46 34 -83.5t80 -37.5q45 0 79 38t34 83q0 42 -34 77.5t-79 35.5q-46 0 -80 -36t-34 -77z" />
<glyph unicode="&#xe6;" horiz-adv-x="1501" d="M57 254q0 67 22.5 117.5t62.5 82.5t101 52t130.5 27.5t158.5 7.5h99v45q0 48 -12 91t-37.5 81t-71.5 60t-107 22q-60 0 -107 -15.5t-74 -31t-40 -15.5q-27 0 -45 28t-18 60q0 45 94.5 81t198.5 36q221 0 315 -182q53 83 135 132.5t178 49.5q72 0 140.5 -24.5t126.5 -71 t93.5 -124.5t35.5 -175q0 -50 -10.5 -80.5t-35.5 -46t-55.5 -20.5t-81.5 -5h-446v-61q0 -112 80.5 -180t206.5 -68q51 0 95 12.5t68 27.5t47.5 27.5t38.5 12.5q26 0 47 -26t21 -52q0 -33 -47.5 -66.5t-126.5 -56t-162 -22.5q-117 0 -215 54t-153 150q-63 -100 -159 -152 t-194 -52q-127 0 -212 69.5t-85 200.5zM229 270q0 -72 43.5 -110.5t112.5 -38.5q93 0 169.5 68.5t76.5 140.5v106h-70q-61 0 -104 -2.5t-89 -12.5t-74 -27.5t-46.5 -48.5t-18.5 -75zM807 551h375q57 0 74.5 12.5t17.5 50.5q0 96 -67.5 165t-168.5 69q-97 0 -164 -64.5 t-67 -158.5v-74z" />
<glyph unicode="&#xe7;" horiz-adv-x="854" d="M86 381v205q0 176 103.5 286.5t304.5 110.5q127 0 214 -45.5t87 -95.5q0 -28 -21.5 -56t-50.5 -28q-13 0 -32 11t-38.5 24.5t-59 24.5t-87.5 11q-124 0 -187 -63.5t-63 -179.5v-205q0 -117 63 -180.5t189 -63.5q50 0 90 11.5t60 25.5t39.5 25.5t33.5 11.5q32 0 54 -26.5 t22 -55.5q0 -47 -77.5 -91.5t-194.5 -51.5l-27 -105q98 -3 147.5 -45t49.5 -104q0 -65 -48.5 -115.5t-142.5 -50.5q-55 0 -109.5 14.5t-54.5 40.5q0 15 10.5 36t26.5 21q3 0 39.5 -14t75.5 -14q53 0 79.5 21t26.5 55q0 74 -121 84l-88 6l45 170q-178 13 -268 120.5 t-90 274.5z" />
<glyph unicode="&#xe8;" horiz-adv-x="952" d="M84 381v215q0 158 120 272.5t288 114.5q160 0 276.5 -108t116.5 -269q0 -47 -11 -80.5t-26 -50.5t-42.5 -26t-48.5 -11t-55 -2h-448v-61q0 -113 81 -180.5t210 -67.5q52 0 96 12.5t67 27.5t46 27.5t39 12.5q29 0 49 -26t20 -52q0 -46 -93 -95.5t-230 -49.5 q-201 0 -328 110t-127 287zM254 551h379q54 0 72 12.5t18 52.5q0 93 -67.5 162.5t-166.5 69.5q-97 0 -166 -65t-69 -158v-74zM303 1372q0 26 16.5 48t40.5 22q9 0 21 -4l240 -127q26 -13 26 -45q0 -26 -18 -48t-43 -22q-7 0 -23 8l-231 119q-29 15 -29 49z" />
<glyph unicode="&#xe9;" horiz-adv-x="952" d="M84 381v215q0 158 120 272.5t288 114.5q160 0 276.5 -108t116.5 -269q0 -47 -11 -80.5t-26 -50.5t-42.5 -26t-48.5 -11t-55 -2h-448v-61q0 -113 81 -180.5t210 -67.5q52 0 96 12.5t67 27.5t46 27.5t39 12.5q29 0 49 -26t20 -52q0 -46 -93 -95.5t-230 -49.5 q-201 0 -328 110t-127 287zM254 551h379q54 0 72 12.5t18 52.5q0 93 -67.5 162.5t-166.5 69.5q-97 0 -166 -65t-69 -158v-74zM319 1266q0 30 27 45l240 127q12 4 20 4q25 0 41.5 -22t16.5 -48q0 -34 -29 -49l-232 -119q-16 -8 -22 -8q-25 0 -43.5 22t-18.5 48z" />
<glyph unicode="&#xea;" horiz-adv-x="952" d="M84 381v215q0 158 120 272.5t288 114.5q160 0 276.5 -108t116.5 -269q0 -47 -11 -80.5t-26 -50.5t-42.5 -26t-48.5 -11t-55 -2h-448v-61q0 -113 81 -180.5t210 -67.5q52 0 96 12.5t67 27.5t46 27.5t39 12.5q29 0 49 -26t20 -52q0 -46 -93 -95.5t-230 -49.5 q-201 0 -328 110t-127 287zM209 1264q0 38 31 53l213 115q20 10 34 10q18 0 35 -10l213 -113q33 -17 33 -57q0 -23 -13.5 -40.5t-33.5 -17.5q-3 0 -10.5 2.5l-10.5 3.5l-213 115l-213 -115q-9 -6 -18 -6q-19 0 -33 18.5t-14 41.5zM254 551h379q54 0 72 12.5t18 52.5 q0 93 -67.5 162.5t-166.5 69.5q-97 0 -166 -65t-69 -158v-74z" />
<glyph unicode="&#xeb;" horiz-adv-x="952" d="M84 381v215q0 158 120 272.5t288 114.5q160 0 276.5 -108t116.5 -269q0 -47 -11 -80.5t-26 -50.5t-42.5 -26t-48.5 -11t-55 -2h-448v-61q0 -113 81 -180.5t210 -67.5q52 0 96 12.5t67 27.5t46 27.5t39 12.5q29 0 49 -26t20 -52q0 -46 -93 -95.5t-230 -49.5 q-201 0 -328 110t-127 287zM254 551h379q54 0 72 12.5t18 52.5q0 93 -67.5 162.5t-166.5 69.5q-97 0 -166 -65t-69 -158v-74zM270 1290q0 35 24.5 59.5t59.5 24.5q34 0 58 -24.5t24 -59.5t-24 -60.5t-58 -25.5q-35 0 -59.5 25.5t-24.5 60.5zM539 1290q0 35 23.5 59.5 t58.5 24.5t58 -24t23 -60t-23 -61t-58 -25t-58.5 25t-23.5 61z" />
<glyph unicode="&#xec;" horiz-adv-x="411" d="M16 1372q0 26 17 48t41 22q8 0 20 -4l240 -127q26 -13 26 -45q0 -26 -18 -48t-43 -22q-7 0 -23 8l-231 119q-29 15 -29 49zM121 61v850q0 26 24 43t60 17t61 -17t25 -43v-850q0 -24 -25.5 -42.5t-60.5 -18.5t-59.5 18.5t-24.5 42.5z" />
<glyph unicode="&#xed;" horiz-adv-x="411" d="M49 1266q0 30 27 45l239 127q12 4 21 4q25 0 41 -21.5t16 -48.5q0 -35 -28 -49l-232 -119q-16 -8 -22 -8q-25 0 -43.5 22t-18.5 48zM121 61v850q0 26 24 43t60 17t61 -17t25 -43v-850q0 -24 -25.5 -42.5t-60.5 -18.5t-59.5 18.5t-24.5 42.5z" />
<glyph unicode="&#xee;" horiz-adv-x="411" d="M-74 1264q0 38 31 53l213 115q20 10 35 10q18 0 35 -10l213 -113q32 -17 32 -57q0 -23 -13.5 -40.5t-33.5 -17.5q-3 0 -10 2.5t-10 3.5l-213 115l-213 -115q-9 -6 -19 -6q-19 0 -33 18.5t-14 41.5zM121 61v850q0 26 24 43t60 17t61 -17t25 -43v-850q0 -24 -25.5 -42.5 t-60.5 -18.5t-59.5 18.5t-24.5 42.5z" />
<glyph unicode="&#xef;" horiz-adv-x="411" d="M-6 1290q0 35 24.5 59.5t59.5 24.5q34 0 58 -24.5t24 -59.5t-24 -60.5t-58 -25.5q-35 0 -59.5 25.5t-24.5 60.5zM121 61v850q0 26 24 43t60 17t61 -17t25 -43v-850q0 -24 -25.5 -42.5t-60.5 -18.5t-59.5 18.5t-24.5 42.5zM262 1290q0 35 23.5 59.5t58.5 24.5t58.5 -24.5 t23.5 -59.5q0 -36 -23.5 -61t-58.5 -25t-58.5 25t-23.5 61z" />
<glyph unicode="&#xf0;" horiz-adv-x="1007" d="M84 381v209q0 159 107 276t255 117q91 0 171.5 -47.5t109.5 -120.5q-17 244 -131 408l-154 -90q-10 -7 -22 -7q-23 0 -43.5 24t-20.5 50q0 28 23 39l141 82q-82 85 -176 88q-41 21 -41 64q0 31 22.5 57t69.5 26q67 0 138.5 -37.5t134.5 -109.5l139 82q9 6 20 6 q25 0 45.5 -23t20.5 -49q0 -29 -25 -41l-129 -77q73 -118 115.5 -268.5t42.5 -309.5v-348q0 -102 -55.5 -194t-149.5 -147.5t-200 -55.5q-107 0 -201.5 55.5t-150.5 147t-56 194.5zM254 381q0 -95 70.5 -169.5t167.5 -74.5q95 0 165 74.5t70 169.5v215q0 93 -72 163t-166 70 q-97 0 -166 -73t-69 -166v-209z" />
<glyph unicode="&#xf1;" horiz-adv-x="1030" d="M121 61v850q0 26 23.5 43t60.5 17q32 0 55 -17t23 -43v-84q34 66 106 111t168 45q147 0 254 -116t107 -277v-529q0 -29 -26 -45t-61 -16q-34 0 -58.5 16t-24.5 45v529q0 92 -70 165.5t-164 73.5q-89 0 -156 -66t-67 -173v-529q0 -23 -26 -42t-60 -19q-36 0 -60 18.5 t-24 42.5zM182 1303q0 42 33.5 71.5t72 41t72.5 11.5q56 0 139.5 -33.5t137.5 -33.5q39 0 68 14t48 27.5t33 13.5q23 0 36.5 -19.5t13.5 -37.5q0 -34 -19 -59.5t-47.5 -38.5t-55.5 -19t-50 -6q-61 0 -143.5 34t-135.5 34q-38 0 -69 -15t-52 -30t-35 -15q-23 0 -35 20t-12 40 z" />
<glyph unicode="&#xf2;" horiz-adv-x="976" d="M84 381v209q0 103 54 193.5t147.5 145t201.5 54.5q164 0 285 -116.5t121 -276.5v-209q0 -76 -33 -149t-88 -127.5t-130 -87.5t-155 -33q-106 0 -199.5 55.5t-148.5 147t-55 194.5zM254 381q0 -95 69 -169.5t164 -74.5t165.5 74.5t70.5 169.5v209q0 93 -70 166t-166 73 t-164.5 -73t-68.5 -166v-209zM303 1372q0 26 16.5 48t40.5 22q9 0 21 -4l240 -127q26 -13 26 -45q0 -26 -18 -48t-43 -22q-7 0 -23 8l-231 119q-29 15 -29 49z" />
<glyph unicode="&#xf3;" horiz-adv-x="976" d="M84 381v209q0 103 54 193.5t147.5 145t201.5 54.5q164 0 285 -116.5t121 -276.5v-209q0 -76 -33 -149t-88 -127.5t-130 -87.5t-155 -33q-106 0 -199.5 55.5t-148.5 147t-55 194.5zM254 381q0 -95 69 -169.5t164 -74.5t165.5 74.5t70.5 169.5v209q0 93 -70 166t-166 73 t-164.5 -73t-68.5 -166v-209zM319 1266q0 30 27 45l240 127q12 4 20 4q25 0 41.5 -22t16.5 -48q0 -34 -29 -49l-232 -119q-16 -8 -22 -8q-25 0 -43.5 22t-18.5 48z" />
<glyph unicode="&#xf4;" horiz-adv-x="976" d="M84 381v209q0 103 54 193.5t147.5 145t201.5 54.5q164 0 285 -116.5t121 -276.5v-209q0 -76 -33 -149t-88 -127.5t-130 -87.5t-155 -33q-106 0 -199.5 55.5t-148.5 147t-55 194.5zM209 1264q0 38 31 53l213 115q20 10 34 10q18 0 35 -10l213 -113q33 -17 33 -57 q0 -23 -13.5 -40.5t-33.5 -17.5q-3 0 -10.5 2.5l-10.5 3.5l-213 115l-213 -115q-9 -6 -18 -6q-19 0 -33 18.5t-14 41.5zM254 381q0 -95 69 -169.5t164 -74.5t165.5 74.5t70.5 169.5v209q0 93 -70 166t-166 73t-164.5 -73t-68.5 -166v-209z" />
<glyph unicode="&#xf5;" horiz-adv-x="976" d="M84 381v209q0 103 54 193.5t147.5 145t201.5 54.5q164 0 285 -116.5t121 -276.5v-209q0 -76 -33 -149t-88 -127.5t-130 -87.5t-155 -33q-106 0 -199.5 55.5t-148.5 147t-55 194.5zM162 1303q0 42 33.5 71.5t72 41t72.5 11.5q56 0 139 -33.5t137 -33.5q39 0 68.5 14 t48.5 27.5t33 13.5q23 0 36 -19.5t13 -37.5q0 -34 -19 -59.5t-47.5 -38.5t-55.5 -19t-50 -6q-61 0 -143 34t-135 34q-38 0 -69 -15t-52 -30t-35 -15q-23 0 -35 20t-12 40zM254 381q0 -95 69 -169.5t164 -74.5t165.5 74.5t70.5 169.5v209q0 93 -70 166t-166 73t-164.5 -73 t-68.5 -166v-209z" />
<glyph unicode="&#xf6;" horiz-adv-x="976" d="M84 381v209q0 103 54 193.5t147.5 145t201.5 54.5q164 0 285 -116.5t121 -276.5v-209q0 -76 -33 -149t-88 -127.5t-130 -87.5t-155 -33q-106 0 -199.5 55.5t-148.5 147t-55 194.5zM254 381q0 -95 69 -169.5t164 -74.5t165.5 74.5t70.5 169.5v209q0 93 -70 166t-166 73 t-164.5 -73t-68.5 -166v-209zM272 1290q0 35 24.5 59.5t59.5 24.5q34 0 58 -24.5t24 -59.5t-24 -60.5t-58 -25.5q-35 0 -59.5 25.5t-24.5 60.5zM541 1290q0 35 23.5 59.5t58.5 24.5t58.5 -24.5t23.5 -59.5q0 -36 -23.5 -61t-58.5 -25t-58.5 25t-23.5 61z" />
<glyph unicode="&#xf7;" horiz-adv-x="919" d="M72 489q0 31 17 51.5t44 20.5h651q25 0 44.5 -21t19.5 -51t-19 -49.5t-45 -19.5h-651q-28 0 -44.5 19t-16.5 50zM344 152q0 43 32.5 73.5t76.5 30.5q42 0 74 -30.5t32 -73.5q0 -41 -32.5 -73t-73.5 -32q-43 0 -76 32t-33 73zM344 829q0 42 33 73.5t76 31.5q42 0 74 -31.5 t32 -73.5t-32 -73t-74 -31q-43 0 -76 31t-33 73z" />
<glyph unicode="&#xf8;" horiz-adv-x="976" d="M84 381v209q0 103 54 193.5t147.5 145t201.5 54.5q112 0 209 -59l60 98q12 20 35 20q19 0 34 -14t15 -35q0 -12 -11 -30l-59 -95q123 -117 123 -278v-209q0 -76 -33 -149t-88 -127.5t-130 -87.5t-155 -33q-121 0 -219 67l-59 -96q-12 -21 -35 -21q-16 0 -30.5 12.5 t-14.5 30.5q0 11 8 27l64 102q-55 56 -86 128t-31 147zM254 381q0 -68 35 -127l325 534q-61 41 -127 41q-96 0 -164.5 -73t-68.5 -166v-209zM350 184q63 -47 137 -47q95 0 165.5 74.5t70.5 169.5v209q0 69 -43 131z" />
<glyph unicode="&#xf9;" horiz-adv-x="1034" d="M113 377v532q0 24 25 43t61 19q32 0 58 -19.5t26 -42.5v-532q0 -93 69.5 -166.5t165.5 -73.5q95 0 164.5 73t69.5 167v534q0 24 25.5 42t60.5 18q36 0 60 -18t24 -42v-534q0 -157 -120 -275t-284 -118q-109 0 -203 55t-148 145.5t-54 192.5zM332 1372q0 26 16.5 48 t40.5 22q9 0 21 -4l239 -127q27 -13 27 -45q0 -26 -18.5 -48t-43.5 -22q-6 0 -22 8l-232 119q-28 14 -28 49z" />
<glyph unicode="&#xfa;" horiz-adv-x="1034" d="M113 377v532q0 24 25 43t61 19q32 0 58 -19.5t26 -42.5v-532q0 -93 69.5 -166.5t165.5 -73.5q95 0 164.5 73t69.5 167v534q0 24 25.5 42t60.5 18q36 0 60 -18t24 -42v-534q0 -157 -120 -275t-284 -118q-109 0 -203 55t-148 145.5t-54 192.5zM356 1266q0 30 27 45l240 127 q12 4 20 4q25 0 41 -21.5t16 -48.5q0 -35 -28 -49l-232 -119q-16 -8 -22 -8q-25 0 -43.5 22t-18.5 48z" />
<glyph unicode="&#xfb;" horiz-adv-x="1034" d="M113 377v532q0 24 25 43t61 19q32 0 58 -19.5t26 -42.5v-532q0 -93 69.5 -166.5t165.5 -73.5q95 0 164.5 73t69.5 167v534q0 24 25.5 42t60.5 18q36 0 60 -18t24 -42v-534q0 -157 -120 -275t-284 -118q-109 0 -203 55t-148 145.5t-54 192.5zM238 1264q0 38 30 53l213 115 q20 10 35 10q18 0 35 -10l213 -113q33 -17 33 -57q0 -23 -13.5 -40.5t-33.5 -17.5q-3 0 -11 2.5t-10 3.5l-213 115l-213 -115q-9 -6 -18 -6q-19 0 -33 18.5t-14 41.5z" />
<glyph unicode="&#xfc;" horiz-adv-x="1034" d="M113 377v532q0 24 25 43t61 19q32 0 58 -19.5t26 -42.5v-532q0 -93 69.5 -166.5t165.5 -73.5q95 0 164.5 73t69.5 167v534q0 24 25.5 42t60.5 18q36 0 60 -18t24 -42v-534q0 -157 -120 -275t-284 -118q-109 0 -203 55t-148 145.5t-54 192.5zM301 1290q0 35 24.5 59.5 t59.5 24.5q34 0 58 -24.5t24 -59.5t-24 -60.5t-58 -25.5q-35 0 -59.5 25.5t-24.5 60.5zM569 1290q0 35 23.5 59.5t58.5 24.5t58.5 -24.5t23.5 -59.5q0 -36 -23.5 -61t-58.5 -25t-58.5 25t-23.5 61z" />
<glyph unicode="&#xfd;" horiz-adv-x="894" d="M25 901q0 32 37 57t73 25q44 0 55 -35l271 -712l244 712q14 35 53 35q35 0 72.5 -25t37.5 -59q0 -11 -6 -20l-311 -834q-75 -200 -121 -283q-116 -209 -285 -229q-19 -2 -39 -2q-38 0 -58.5 16.5t-20.5 59.5q0 74 49 74q92 0 179 103.5t118 264.5l-340 830q-8 12 -8 22z M315 1266q0 30 27 45l240 127q12 4 20 4q25 0 41 -21.5t16 -48.5q0 -35 -28 -49l-232 -119q-16 -8 -22 -8q-25 0 -43.5 22t-18.5 48z" />
<glyph unicode="&#xfe;" horiz-adv-x="1011" d="M123 -408v1905q0 26 23 42.5t59 16.5q38 0 63 -16.5t25 -42.5v-670q37 66 106.5 111t159.5 45q153 0 261 -115.5t108 -277.5v-209q0 -156 -108.5 -276.5t-252.5 -120.5q-90 0 -165 46t-109 113v-551q0 -24 -25.5 -42.5t-60.5 -18.5q-36 0 -60 18.5t-24 42.5zM293 326 q0 -51 70.5 -120t160.5 -69q93 0 163.5 75t70.5 169v209q0 93 -71 166t-167 73q-90 0 -158.5 -66t-68.5 -173v-264z" />
<glyph unicode="&#xff;" horiz-adv-x="894" d="M25 901q0 32 37 57t73 25q44 0 55 -35l271 -712l244 712q14 35 53 35q35 0 72.5 -25t37.5 -59q0 -11 -6 -20l-311 -834q-75 -200 -121 -283q-116 -209 -285 -229q-19 -2 -39 -2q-38 0 -58.5 16.5t-20.5 59.5q0 74 49 74q92 0 179 103.5t118 264.5l-340 830q-8 12 -8 22z M242 1290q0 35 24.5 59.5t59.5 24.5q34 0 58 -24.5t24 -59.5t-24 -60.5t-58 -25.5q-35 0 -59.5 25.5t-24.5 60.5zM510 1290q0 35 23.5 59.5t58.5 24.5t58.5 -24.5t23.5 -59.5q0 -36 -23.5 -61t-58.5 -25t-58.5 25t-23.5 61z" />
<glyph unicode="&#x152;" horiz-adv-x="1714" d="M131 434v617q0 119 31 206.5t88 139t131 76t166 24.5q99 0 183.5 -38t129.5 -111v88q0 29 23 45t55 16h676q29 0 44 -22.5t15 -53.5q0 -34 -15.5 -57t-43.5 -23h-600v-520h284q28 0 44 -21t16 -52q0 -28 -15.5 -49t-44.5 -21h-284v-522h600q28 0 43.5 -23t15.5 -57 q0 -31 -15 -53.5t-44 -22.5h-676q-32 0 -55 16t-23 45v76q-45 -74 -129 -111.5t-184 -37.5q-92 0 -166 24.5t-131 76t-88 139t-31 206.5zM303 434q0 -146 69.5 -218.5t198.5 -72.5t200 72.5t71 218.5v617q0 146 -71 218t-200 72t-198.5 -72t-69.5 -218v-617z" />
<glyph unicode="&#x153;" horiz-adv-x="1591" d="M84 381v209q0 103 54 193.5t147.5 145t201.5 54.5q100 0 187 -50.5t139 -135.5q52 85 135.5 135.5t181.5 50.5q104 0 194 -48t145 -134.5t55 -192.5q0 -48 -11 -81.5t-25.5 -51t-42 -26.5t-48.5 -11t-56 -2h-448v-61q0 -113 81 -180.5t214 -67.5q52 0 94.5 12.5 t64.5 27.5t44.5 27.5t38.5 12.5q29 0 50 -25.5t21 -54.5q0 -20 -24 -44.5t-64.5 -46.5t-103 -37t-131.5 -15q-121 0 -216.5 50t-148.5 138q-54 -85 -140.5 -136.5t-185.5 -51.5q-106 0 -199.5 55.5t-148.5 147t-55 194.5zM254 381q0 -95 69 -169.5t164 -74.5t165.5 74.5 t70.5 169.5v209q0 93 -70 166t-166 73t-164.5 -73t-68.5 -166v-209zM893 551h379q54 0 72 12.5t18 52.5q0 93 -67.5 162.5t-166.5 69.5q-97 0 -166 -63.5t-69 -155.5v-78z" />
<glyph unicode="&#x178;" horiz-adv-x="1116" d="M35 1425q0 30 33.5 51t68.5 21q39 0 62 -45l360 -702l359 702q23 45 61 45q37 0 69.5 -21t32.5 -51q0 -15 -8 -34l-424 -791q-4 -6 -4 -20v-519q0 -29 -25.5 -45t-60.5 -16t-60.5 16t-25.5 45v519q0 11 -6 20l-424 791q-8 19 -8 34zM342 1804q0 35 24.5 59.5t59.5 24.5 q34 0 58 -24.5t24 -59.5t-24 -60.5t-58 -25.5q-35 0 -59.5 25.5t-24.5 60.5zM610 1804q0 35 23.5 59.5t58.5 24.5t58.5 -24.5t23.5 -59.5q0 -36 -23.5 -61t-58.5 -25t-58.5 25t-23.5 61z" />
<glyph unicode="&#x2c6;" horiz-adv-x="559" d="M0 1264q0 38 31 53l213 115q20 10 35 10q17 0 34 -10l213 -113q33 -17 33 -57q0 -23 -13.5 -40.5t-33.5 -17.5q-3 0 -10 2.5t-10 3.5l-213 115l-213 -115q-9 -6 -19 -6q-19 0 -33 18.5t-14 41.5z" />
<glyph unicode="&#x2dc;" horiz-adv-x="653" d="M0 1303q0 42 33.5 71.5t72 41t72.5 11.5q56 0 139.5 -33.5t137.5 -33.5q39 0 68 14t48 27.5t33 13.5q23 0 36 -19.5t13 -37.5q0 -34 -19 -59.5t-47.5 -38.5t-55.5 -19t-50 -6q-61 0 -143 34t-135 34q-38 0 -69 -15t-52 -30t-35 -15q-23 0 -35 20t-12 40z" />
<glyph unicode="&#x2000;" horiz-adv-x="1043" />
<glyph unicode="&#x2001;" horiz-adv-x="2087" />
<glyph unicode="&#x2002;" horiz-adv-x="1043" />
<glyph unicode="&#x2003;" horiz-adv-x="2087" />
<glyph unicode="&#x2004;" horiz-adv-x="695" />
<glyph unicode="&#x2005;" horiz-adv-x="521" />
<glyph unicode="&#x2006;" horiz-adv-x="347" />
<glyph unicode="&#x2007;" horiz-adv-x="347" />
<glyph unicode="&#x2008;" horiz-adv-x="260" />
<glyph unicode="&#x2009;" horiz-adv-x="417" />
<glyph unicode="&#x200a;" horiz-adv-x="115" />
<glyph unicode="&#x2010;" horiz-adv-x="845" d="M96 492q0 31 16.5 52t43.5 21h532q24 0 43 -21.5t19 -51.5q0 -31 -19 -51.5t-43 -20.5h-532q-28 0 -44 19.5t-16 52.5z" />
<glyph unicode="&#x2011;" horiz-adv-x="845" d="M96 492q0 31 16.5 52t43.5 21h532q24 0 43 -21.5t19 -51.5q0 -31 -19 -51.5t-43 -20.5h-532q-28 0 -44 19.5t-16 52.5z" />
<glyph unicode="&#x2012;" horiz-adv-x="845" d="M96 492q0 31 16.5 52t43.5 21h532q24 0 43 -21.5t19 -51.5q0 -31 -19 -51.5t-43 -20.5h-532q-28 0 -44 19.5t-16 52.5z" />
<glyph unicode="&#x2013;" horiz-adv-x="968" d="M96 492q0 31 16.5 52t43.5 21h655q24 0 42.5 -21.5t18.5 -51.5q0 -31 -18.5 -51.5t-42.5 -20.5h-655q-28 0 -44 19.5t-16 52.5z" />
<glyph unicode="&#x2014;" horiz-adv-x="1542" d="M96 492q0 31 16.5 52t43.5 21h1228q24 0 43 -21.5t19 -51.5q0 -31 -19 -51.5t-43 -20.5h-1228q-28 0 -44 19.5t-16 52.5z" />
<glyph unicode="&#x2018;" horiz-adv-x="342" d="M61 1241q0 42 93 250q12 27 41 27q24 0 42.5 -14.5t18.5 -37.5q0 -12 -4 -20l-43 -107q29 -12 47 -39t18 -59q0 -45 -30.5 -75.5t-75.5 -30.5q-43 0 -75 31t-32 75z" />
<glyph unicode="&#x2019;" horiz-adv-x="337" d="M70 1411q0 44 30.5 75.5t75.5 31.5q43 0 75 -32t32 -75q0 -42 -93 -250q-12 -26 -40 -26q-24 0 -43 13.5t-19 35.5q0 14 4 20l43 107q-29 12 -47 39t-18 61z" />
<glyph unicode="&#x201a;" horiz-adv-x="360" d="M74 94q0 45 30.5 77t75.5 32q43 0 74 -32t31 -75q0 -49 -90 -250q-11 -28 -43 -28q-22 0 -41 14.5t-19 36.5q0 12 4 20l43 107q-29 12 -47 39t-18 59z" />
<glyph unicode="&#x201c;" horiz-adv-x="671" d="M61 1241q0 42 93 250q12 27 41 27q24 0 42.5 -14.5t18.5 -37.5q0 -12 -4 -20l-43 -107q29 -12 47 -39t18 -59q0 -45 -30.5 -75.5t-75.5 -30.5q-43 0 -75 31t-32 75zM391 1241q0 49 90 250q15 27 43 27q22 0 41 -14.5t19 -37.5q0 -12 -4 -20l-43 -107q31 -12 49 -39 t18 -59q0 -44 -31 -75t-75 -31t-75.5 31t-31.5 75z" />
<glyph unicode="&#x201d;" horiz-adv-x="665" d="M70 1411q0 43 31 75t75 32q43 0 75 -32t32 -75q0 -48 -93 -250q-12 -26 -40 -26q-22 0 -42 13.5t-20 35.5q0 11 6 20l41 107q-29 12 -47 39t-18 61zM399 1411q0 43 31 75t76 32q42 0 73 -32t31 -75q0 -49 -90 -250q-12 -26 -43 -26q-22 0 -40.5 13.5t-18.5 35.5 q0 14 4 20l43 107q-30 12 -48 39.5t-18 60.5z" />
<glyph unicode="&#x201e;" horiz-adv-x="690" d="M74 94q0 45 30.5 77t75.5 32q43 0 74 -32t31 -75q0 -49 -90 -250q-11 -28 -43 -28q-22 0 -41 14.5t-19 36.5q0 12 4 20l43 107q-29 12 -47 39t-18 59zM401 94q0 44 31.5 76.5t75.5 32.5q43 0 74.5 -32t31.5 -75q0 -44 -92 -250q-11 -28 -41 -28q-22 0 -41.5 14.5 t-19.5 36.5q0 4 4 20l43 107q-29 12 -47.5 39t-18.5 59z" />
<glyph unicode="&#x2022;" horiz-adv-x="651" d="M92 614q0 90 70.5 158t165.5 68q92 0 161.5 -68.5t69.5 -157.5q0 -91 -69.5 -159t-161.5 -68q-95 0 -165.5 68t-70.5 159z" />
<glyph unicode="&#x2026;" horiz-adv-x="1116" d="M76 94q0 45 30.5 77t75.5 32q43 0 74 -32.5t31 -76.5q0 -42 -31.5 -74t-73.5 -32q-45 0 -75.5 32t-30.5 74zM455 94q0 45 30.5 77t75.5 32q43 0 74 -32.5t31 -76.5q0 -42 -31.5 -74t-73.5 -32q-45 0 -75.5 32t-30.5 74zM831 94q0 45 31 77t76 32q43 0 73.5 -32.5 t30.5 -76.5q0 -42 -31 -74t-73 -32q-45 0 -76 32t-31 74z" />
<glyph unicode="&#x202f;" horiz-adv-x="417" />
<glyph unicode="&#x2039;" horiz-adv-x="503" d="M66 567q0 16 28 70l172 321q17 27 56 27t69.5 -28t30.5 -58q0 -10 -6 -22l-166 -310l166 -309q6 -9 6 -22q0 -29 -32 -56.5t-71 -27.5t-53 26l-172 320q-4 7 -11 20t-9.5 18.5t-5 14t-2.5 16.5z" />
<glyph unicode="&#x203a;" horiz-adv-x="503" d="M82 236q0 13 6 22l166 309l-166 310q-6 12 -6 22q0 29 31 57.5t69 28.5q42 0 56 -27l172 -321q28 -54 28 -70q0 -8 -2.5 -16.5t-5 -14t-9.5 -18.5t-11 -20l-172 -320q-14 -26 -54 -26q-38 0 -70 27.5t-32 56.5z" />
<glyph unicode="&#x205f;" horiz-adv-x="521" />
<glyph unicode="&#x20ac;" horiz-adv-x="1210" d="M59 565q0 28 17 48t43 20h119v180h-119q-26 0 -43 18t-17 46q0 29 17 48t43 19h119v107q0 119 33.5 207t94.5 139t138 75.5t172 24.5q199 0 321.5 -102t122.5 -265q0 -46 -20.5 -63.5t-65.5 -17.5q-86 0 -86 57q0 103 -69.5 169t-198.5 66q-130 0 -200 -72t-70 -218v-107 h303q24 0 42.5 -19t18.5 -46q0 -28 -18.5 -47t-42.5 -19h-303v-180h303q24 0 42.5 -20.5t18.5 -47.5t-18.5 -45t-42.5 -18h-303v-82q0 -124 67 -200.5t205 -76.5q126 0 196 67t70 177q0 57 86 57q45 0 65.5 -18t20.5 -66q0 -165 -122.5 -268.5t-321.5 -103.5 q-203 0 -320.5 111.5t-117.5 320.5v82h-119q-27 0 -43.5 17t-16.5 46z" />
<glyph unicode="&#x2122;" horiz-adv-x="1306" d="M84 1522q0 21 9.5 36t27.5 15h414q34 0 34 -51q0 -22 -9 -38t-25 -16h-152v-460q0 -18 -16 -27.5t-39 -9.5t-39.5 9.5t-16.5 27.5v460h-151q-17 0 -27 16.5t-10 37.5zM621 1008v510q0 28 16 41.5t39 13.5q30 0 49.5 -15t36.5 -51l137 -305l137 305q17 37 36 51.5t48 14.5 q56 0 56 -55v-510q0 -18 -16.5 -27.5t-39.5 -9.5q-22 0 -37.5 9.5t-15.5 27.5v333l-131 -286q-13 -29 -39 -29q-27 0 -37 29l-129 293v-340q0 -18 -16.5 -27.5t-38.5 -9.5t-38.5 9.5t-16.5 27.5z" />
<glyph unicode="&#x25fc;" horiz-adv-x="983" d="M0 0v983h983v-983h-983z" />
</font>
</defs>
</svg>
