<?xml version="1.0" standalone="no"?>
<!DOCTYPE svg PUBLIC "-//W3C//DTD SVG 1.1//EN" "http://www.w3.org/Graphics/SVG/1.1/DTD/svg11.dtd" >
<svg xmlns="http://www.w3.org/2000/svg">
<metadata></metadata>
<defs>
<font id="dosissemibold" horiz-adv-x="1159" >
<font-face units-per-em="2048" ascent="1638" descent="-410" />
<missing-glyph horiz-adv-x="409" />
<glyph unicode="&#xfb01;" horiz-adv-x="1114" d="M115 70v1050q0 85 33 162t92.5 136.5t150.5 94.5t201 35q128 0 232 -40.5t104 -98.5q0 -18 -9 -45.5t-28 -52.5t-41 -25q-14 0 -37 12t-47 27t-70 27t-102 12q-128 0 -196 -65.5t-68 -168.5v-159h229q27 0 43 -24t16 -56t-16 -56t-43 -24h-229v-741q0 -30 -33 -50 t-78 -20t-74.5 19.5t-29.5 50.5zM788 72v829q0 30 30 50t75 20q46 0 78.5 -20t32.5 -50v-829q0 -27 -33 -49.5t-78 -22.5q-43 0 -74 22.5t-31 49.5z" />
<glyph unicode="&#xfb02;" horiz-adv-x="1136" d="M115 70v1050q0 100 41.5 182t111.5 135t160 82t188 29q112 0 221.5 -33.5t168.5 -97.5v-1345q0 -27 -33 -49.5t-78 -22.5q-43 0 -73.5 22.5t-30.5 49.5v1243q-64 55 -183 55q-112 0 -195 -64.5t-83 -175.5v-159h229q27 0 43 -24t16 -56t-16 -56t-43 -24h-229v-741 q0 -30 -33 -50t-78 -20t-74.5 19.5t-29.5 50.5z" />
<glyph horiz-adv-x="0" />
<glyph horiz-adv-x="682" />
<glyph unicode="&#xd;" horiz-adv-x="0" />
<glyph unicode=" "  horiz-adv-x="409" />
<glyph unicode="&#x09;" horiz-adv-x="409" />
<glyph unicode="&#xa0;" horiz-adv-x="409" />
<glyph unicode="!" horiz-adv-x="430" d="M94 111q0 51 35.5 86.5t87.5 35.5q50 0 85.5 -35.5t35.5 -86.5q0 -50 -36 -86.5t-85 -36.5q-52 0 -87.5 36.5t-35.5 86.5zM106 1413q0 46 31 72t78 26q46 0 77.5 -26t31.5 -72q0 -149 -13.5 -481.5t-13.5 -480.5q0 -31 -26.5 -48.5t-55.5 -17.5q-36 0 -60 17t-24 49 q0 149 -12.5 481t-12.5 481z" />
<glyph unicode="&#x22;" horiz-adv-x="595" d="M66 1513q0 25 26 42.5t58 17.5q34 0 61 -17.5t27 -42.5l-21 -288q0 -26 -17 -44t-50 -18t-48.5 18t-15.5 44zM358 1513q0 25 26 42.5t60 17.5q32 0 59 -17.5t27 -42.5l-20 -288q0 -25 -17 -43.5t-49 -18.5q-33 0 -49 18t-16 44z" />
<glyph unicode="#" horiz-adv-x="1314" d="M49 555q0 35 18 59.5t44 24.5h208l48 281h-174q-32 0 -49 21t-17 58q0 36 17 59t44 23h211l56 332q3 21 29.5 34t58.5 13q43 0 71.5 -22t28.5 -64l-49 -293h237l58 332q3 21 29.5 34t58.5 13q41 0 70 -22t30 -64l-51 -293h174q27 0 47.5 -23t20.5 -57t-19.5 -57.5 t-44.5 -23.5h-207l-49 -281h174q27 0 48.5 -24t21.5 -58t-20 -58t-46 -24h-208l-62 -358q-4 -22 -30.5 -38t-55.5 -16q-44 0 -74 22.5t-30 61.5l55 328h-236l-61 -356q-4 -23 -30.5 -39.5t-53.5 -16.5q-44 0 -74 22.5t-30 61.5l51 328h-172q-30 0 -48 22t-18 58zM516 639 h236l49 281h-238z" />
<glyph unicode="$" horiz-adv-x="1054" d="M63 246q0 39 29 77.5t66 38.5q18 0 39.5 -15t47 -36.5t56.5 -44t80.5 -41t107.5 -22.5v481q-53 19 -80.5 29.5t-76 32.5t-75 41t-61 50.5t-52.5 65t-31 80.5t-13 102q0 75 22 136.5t58.5 103.5t87.5 72.5t105.5 46.5t115.5 22v60q0 19 17 33t43 14q23 0 42 -14t19 -33 v-56q56 -2 112 -11t107.5 -26t84 -45.5t32.5 -64.5q0 -37 -24.5 -77t-65.5 -40q-18 0 -50 16.5t-83 36t-113 23.5v-416q53 -20 90 -36.5t84.5 -43t79.5 -58t61 -74t43.5 -98.5t14.5 -124q0 -183 -100.5 -290.5t-272.5 -131.5v-69q0 -19 -19 -33t-42 -14q-26 0 -43 14t-17 33 v63q-179 3 -302.5 81.5t-123.5 160.5zM305 1106q0 -42 14.5 -74t44.5 -55.5t60 -38.5t78 -33v373q-91 -11 -144 -53.5t-53 -118.5zM598 207q86 15 133 66t47 137q0 89 -46.5 140.5t-133.5 88.5v-432z" />
<glyph unicode="%" horiz-adv-x="1585" d="M63 942v303q0 131 75 191.5t202 60.5q126 0 201 -60.5t75 -191.5v-303q0 -131 -75 -191.5t-201 -60.5q-127 0 -202 60.5t-75 191.5zM213 942q0 -121 127 -121q129 0 129 121v303q0 121 -129 121q-127 0 -127 -121v-303zM344 4q0 18 8 31l752 1505q16 37 61 37 q33 0 59.5 -22t26.5 -56q0 -18 -6 -33l-751 -1499q-19 -39 -70 -39q-34 0 -57 23.5t-23 52.5zM969 246v303q0 131 74.5 191.5t201.5 60.5q126 0 201.5 -60.5t75.5 -191.5v-303q0 -131 -75.5 -191.5t-201.5 -60.5q-127 0 -201.5 60.5t-74.5 191.5zM1118 246q0 -121 127 -121 q129 0 129 121v303q0 121 -129 121q-127 0 -127 -121v-303z" />
<glyph unicode="&#x26;" horiz-adv-x="1288" d="M53 424q0 139 75.5 247t188.5 167q-73 84 -112 159t-39 172q0 112 55.5 195.5t147 125.5t204.5 42q164 0 270.5 -75.5t106.5 -147.5q0 -38 -32 -69.5t-70 -31.5q-21 0 -40.5 15t-38.5 37t-42.5 44t-62 37t-86.5 15q-92 0 -147.5 -53t-55.5 -144q0 -36 14.5 -76t30 -68.5 t50.5 -71.5t51.5 -61t56.5 -61l362 -389q10 24 18 49t13.5 51.5t9 45.5t5.5 48t3 40.5t2.5 41.5t1.5 35q3 37 24.5 54.5t74.5 17.5t71.5 -24.5t18.5 -79.5q0 -86 -26 -200t-83 -216l174 -184q15 -18 15 -39q0 -34 -31.5 -61t-69.5 -27q-29 0 -55 26l-141 148 q-164 -178 -414 -178q-113 0 -208 36t-157.5 97.5t-97.5 141.5t-35 169zM272 442q0 -117 81.5 -194.5t224.5 -77.5q169 0 258 121l-396 418q-75 -51 -121.5 -113t-46.5 -154z" />
<glyph unicode="'" horiz-adv-x="303" d="M66 1513q0 25 26 42.5t58 17.5q34 0 61 -17.5t27 -42.5l-21 -288q0 -26 -17 -44t-50 -18t-48.5 18t-15.5 44z" />
<glyph unicode="(" horiz-adv-x="665" d="M109 328v848q0 112 60.5 204.5t155 142.5t199.5 50q107 0 107 -94q0 -42 -20.5 -69.5t-51.5 -27.5q-107 0 -171 -62.5t-64 -143.5v-848q0 -52 21.5 -88.5t58.5 -55t74.5 -26.5t80.5 -8q72 0 72 -97q0 -45 -25 -69.5t-88 -24.5q-80 0 -152 23t-130 66.5t-92.5 116 t-34.5 163.5z" />
<glyph unicode=")" horiz-adv-x="667" d="M37 53q0 97 69 97q43 0 81 8t74.5 26.5t58.5 55t22 88.5v848q0 81 -64.5 143.5t-171.5 62.5q-31 0 -50 27t-19 70q0 94 104 94q105 0 200.5 -50t156.5 -143t61 -204v-848q0 -91 -35 -163.5t-94 -116t-131 -66.5t-152 -23q-63 0 -86.5 24t-23.5 70z" />
<glyph unicode="*" horiz-adv-x="923" d="M51 1186q0 32 23 58t57 26q13 0 23 -4l239 -82l-10 241q1 35 24 53.5t56 18.5t55 -18.5t23 -53.5l-9 -245l240 86q16 4 23 4q32 0 54.5 -29t22.5 -63q0 -23 -13 -41.5t-38 -24.5l-235 -61l155 -217q13 -16 13 -43q0 -34 -28 -57t-62 -23q-38 0 -56 28l-145 217l-148 -219 q-16 -26 -51 -26q-31 0 -61.5 21.5t-30.5 55.5q0 29 16 48l152 206l-240 70q-49 12 -49 74z" />
<glyph unicode="+" horiz-adv-x="886" d="M45 492q0 39 20 65.5t50 26.5h237v235q0 28 27 50t65 22q39 0 65 -21.5t26 -50.5v-235h235q28 0 50 -27t22 -65q0 -39 -21.5 -65t-50.5 -26h-235v-237q0 -31 -25.5 -50.5t-65.5 -19.5q-39 0 -65.5 20t-26.5 50v237h-237q-31 0 -50.5 25.5t-19.5 65.5z" />
<glyph unicode="," horiz-adv-x="378" d="M68 111q0 51 34.5 86.5t85.5 35.5q50 0 86.5 -35t36.5 -87q0 -34 -100 -273q-13 -31 -49 -31q-27 0 -50.5 16t-23.5 42q0 16 6 26l45 109q-32 13 -51.5 43.5t-19.5 67.5z" />
<glyph unicode="-" horiz-adv-x="843" d="M84 492q0 39 20 65.5t50 26.5h532q28 0 51 -27.5t23 -64.5q0 -38 -22.5 -64.5t-51.5 -26.5h-532q-31 0 -50.5 25.5t-19.5 65.5z" />
<glyph unicode="." horiz-adv-x="376" d="M68 111q0 52 34.5 87t87.5 35q50 0 85.5 -35.5t35.5 -86.5q0 -50 -36 -86.5t-85 -36.5q-53 0 -87.5 36t-34.5 87z" />
<glyph unicode="/" horiz-adv-x="985" d="M39 4q0 16 6 31l754 1505q16 37 61 37q33 0 59.5 -22t26.5 -56q0 -20 -8 -33l-752 -1499q-19 -39 -67 -39q-34 0 -57 23.5t-23 52.5z" />
<glyph unicode="0" horiz-adv-x="1128" d="M106 444v596q0 121 34.5 211t98 142.5t144.5 78t182 25.5q100 0 181.5 -25.5t145.5 -78t99 -142.5t35 -211v-596q0 -97 -23.5 -174.5t-64.5 -129.5t-99.5 -86.5t-126.5 -50t-147 -15.5q-101 0 -182 25t-144.5 78t-98 142.5t-34.5 210.5zM324 444q0 -264 241 -264 q117 0 180.5 66t63.5 198v596q0 132 -63.5 198.5t-180.5 66.5t-179 -66t-62 -199v-596zM479 741q0 38 24 62t64 24q38 0 62 -24t24 -62t-24 -63t-62 -25q-39 0 -63.5 24.5t-24.5 63.5z" />
<glyph unicode="1" horiz-adv-x="546" d="M14 1188q0 55 43 84l213 205q22 22 56 22q36 0 66 -20t30 -52v-1355q0 -33 -33 -52.5t-76 -19.5q-44 0 -76 19t-32 53v1138l-72 -90q-20 -20 -45 -20q-31 0 -52.5 27t-21.5 61z" />
<glyph unicode="2" horiz-adv-x="1013" d="M61 72v198q0 67 37 132.5t96 119.5t130.5 107.5t143 106.5t130.5 105.5t96 115t37 126.5q0 85 -56.5 150t-164.5 65q-91 0 -149 -51t-58 -151q0 -33 -31.5 -57.5t-83.5 -24.5q-98 0 -98 121q0 106 58.5 190t154 128t207.5 44q183 0 310.5 -113.5t127.5 -293.5 q0 -89 -36.5 -171t-95 -143.5t-129.5 -118t-141.5 -105t-129 -93t-95 -93.5t-36.5 -96v-77h602q28 0 49.5 -28.5t21.5 -66.5t-21.5 -68t-49.5 -30h-729q-34 0 -65.5 21t-31.5 51z" />
<glyph unicode="3" horiz-adv-x="1042" d="M49 348q0 53 22 72.5t79 19.5q65 0 88.5 -19t23.5 -63q0 -74 62.5 -126t179.5 -52q127 0 187.5 61t60.5 193v39q0 223 -250 223q-36 0 -53 25t-17 61q0 38 17 63t53 25q50 0 86.5 9.5t66.5 33.5t45 69.5t15 113.5q0 110 -51.5 160.5t-153.5 50.5q-115 0 -164 -47.5 t-49 -120.5q0 -43 -23 -65.5t-79 -22.5q-70 0 -91.5 20t-21.5 80q0 43 12 87t42.5 92t77.5 84t124 59.5t174 23.5q412 0 412 -364q0 -125 -44.5 -215.5t-119.5 -126.5q209 -81 209 -318v-39q0 -95 -24 -171t-66 -127t-101.5 -84.5t-127.5 -48.5t-148 -15q-92 0 -169 22 t-128.5 58t-87.5 83.5t-52 97t-16 99.5z" />
<glyph unicode="4" horiz-adv-x="987" d="M6 416q0 24 12 45l496 977q32 59 94 59q35 0 72 -24.5t37 -59.5q0 -13 -10 -33l-422 -841h301v282q0 36 31.5 54t76.5 18q44 0 76.5 -18t32.5 -54v-282h100q35 0 54.5 -31t19.5 -72q0 -37 -22.5 -68.5t-51.5 -31.5h-100v-264q0 -33 -33 -52.5t-76 -19.5q-44 0 -76 19 t-32 53v264h-504q-33 0 -54.5 22t-21.5 58z" />
<glyph unicode="5" horiz-adv-x="1017" d="M45 350q0 56 27 78.5t80 22.5q63 0 86.5 -22.5t23.5 -63.5q0 -85 68.5 -135t171.5 -50q118 0 182 64.5t64 193.5v39q0 128 -64 193t-180 65h-297q-51 0 -71.5 21.5t-20.5 62.5q0 21 4 49l47 557q6 72 49 72h608q32 0 50 -29t18 -67q0 -39 -18 -67.5t-50 -28.5h-473 l-28 -398h182q101 0 182.5 -23.5t145 -73t98.5 -134t35 -199.5v-39q0 -119 -35.5 -208t-99.5 -140.5t-144.5 -76.5t-179.5 -25q-213 0 -337 106t-124 256z" />
<glyph unicode="6" horiz-adv-x="1097" d="M102 444v596q0 121 35.5 211t100.5 142.5t148 78t185 25.5q111 0 199.5 -32t142 -85t81.5 -116.5t28 -130.5q0 -51 -24.5 -72t-77.5 -21q-113 0 -113 82t-69.5 132.5t-170.5 50.5q-121 0 -185.5 -66t-64.5 -199v-258q95 117 287 117q90 0 162.5 -21t131.5 -67.5 t91.5 -130t32.5 -199.5v-37q0 -121 -35 -210.5t-98.5 -142.5t-144.5 -78t-181 -25q-101 0 -182.5 25t-145 78t-98.5 142.5t-35 210.5zM317 432q0 -133 64 -198.5t182 -65.5q117 0 179.5 65t62.5 199v35q0 135 -62 196.5t-182 61.5q-244 0 -244 -240v-53z" />
<glyph unicode="7" horiz-adv-x="991" d="M43 1112v313q0 26 30.5 49t65.5 23h727q33 0 65 -23t32 -49v-211q0 -44 -39 -120l-551 -1067q-17 -33 -66 -33q-53 0 -94 30t-41 76q0 24 10 41l563 1037v127h-485v-193q0 -30 -33 -51t-77 -21q-43 0 -75 21t-32 51z" />
<glyph unicode="8" horiz-adv-x="1067" d="M74 410v24q0 152 62 247.5t173 135.5q-89 34 -139.5 114t-50.5 206q0 187 112 273.5t304 86.5t303.5 -86.5t111.5 -273.5q0 -126 -51 -206t-141 -114q111 -40 173 -135.5t62 -247.5v-24q0 -111 -35 -194t-98 -132t-144 -72.5t-181 -23.5t-181.5 23.5t-145.5 72.5t-99 132 t-35 194zM291 432q0 -133 64 -198.5t180 -65.5q117 0 179 66t62 198v37q0 129 -62 192.5t-179 63.5t-180.5 -63.5t-63.5 -192.5v-37zM330 1112q0 -207 205 -207q204 0 204 207q0 205 -204 205q-205 0 -205 -205z" />
<glyph unicode="9" horiz-adv-x="1097" d="M76 352q0 51 24.5 71.5t77.5 20.5q113 0 113 -82t69 -132t170 -50q119 0 183.5 66t64.5 198v258q-92 -116 -284 -116q-90 0 -162.5 21t-131.5 67.5t-91.5 130t-32.5 199.5v36q0 121 35 211t98.5 142.5t144.5 78t181 25.5q101 0 182 -25.5t144.5 -78t98.5 -142.5t35 -211 v-596q0 -121 -35.5 -210.5t-100.5 -142.5t-148.5 -78t-186.5 -25q-110 0 -198 32t-141 85t-81 116.5t-28 130.5zM293 1018q0 -135 62 -196.5t182 -61.5q241 0 241 239v54q0 264 -243 264q-117 0 -179.5 -65t-62.5 -199v-35z" />
<glyph unicode=":" horiz-adv-x="448" d="M102 111q0 52 35 87t88 35q50 0 85.5 -35.5t35.5 -86.5q0 -50 -36 -86.5t-85 -36.5q-53 0 -88 36t-35 87zM102 741q0 52 35 87.5t88 35.5q50 0 85.5 -36t35.5 -87q0 -50 -36 -86.5t-85 -36.5q-53 0 -88 36t-35 87z" />
<glyph unicode=";" horiz-adv-x="448" d="M98 111q0 51 35 86.5t86 35.5q50 0 86.5 -35t36.5 -87q0 -34 -100 -273q-13 -31 -49 -31q-27 0 -50.5 16t-23.5 42q0 16 6 26l45 109q-32 14 -52 44t-20 67zM106 741q0 52 35 87.5t88 35.5q50 0 85.5 -36t35.5 -87q0 -50 -36 -86.5t-85 -36.5q-53 0 -88 36t-35 87z" />
<glyph unicode="&#x3c;" horiz-adv-x="841" d="M43 567q0 22 11.5 46t33.5 38l539 353q11 8 30 8q34 0 66.5 -31t32.5 -72q0 -38 -31 -59l-430 -283l430 -282q31 -17 31 -60q0 -41 -32 -70.5t-67 -29.5q-19 0 -30 8l-539 352q-45 29 -45 82z" />
<glyph unicode="=" horiz-adv-x="905" d="M119 311q0 39 19.5 65.5t51.5 26.5h523q28 0 50.5 -27t22.5 -65q0 -39 -22 -64.5t-51 -25.5h-523q-32 0 -51.5 25t-19.5 65zM119 727q0 39 19.5 65.5t51.5 26.5h523q28 0 50.5 -27t22.5 -65q0 -39 -22 -64.5t-51 -25.5h-523q-32 0 -51.5 25t-19.5 65z" />
<glyph unicode="&#x3e;" horiz-adv-x="839" d="M86 225q0 42 29 60l432 282l-432 283q-29 22 -29 59q0 41 31.5 72t66.5 31q18 0 29 -8l539 -353q22 -14 33.5 -38t11.5 -46q0 -55 -45 -82l-539 -352q-11 -8 -29 -8q-36 0 -67 29.5t-31 70.5z" />
<glyph unicode="?" horiz-adv-x="864" d="M45 1303q0 72 100 140t254 68q190 0 300 -99t110 -253q0 -64 -18.5 -122.5t-53 -106.5t-62 -79t-69.5 -69t-51 -47q-61 -55 -75.5 -112.5t-14.5 -173.5q0 -64 -86 -64q-43 0 -61.5 20.5t-18.5 73.5q0 139 30 214t81 122q13 12 52 44.5t61 54.5t50.5 58t42 77.5t13.5 89.5 q0 98 -63 152.5t-173 54.5q-54 0 -94 -13t-61.5 -32t-37.5 -37.5t-33 -31.5t-38 -13q-31 0 -57.5 23t-26.5 61zM260 111q0 51 35 86.5t86 35.5q50 0 85.5 -35.5t35.5 -86.5q0 -50 -35.5 -86.5t-85.5 -36.5q-52 0 -86.5 36.5t-34.5 86.5z" />
<glyph unicode="@" horiz-adv-x="1492" d="M90 434q0 154 41 283.5t122 228.5t213 155t304 56q314 0 487 -176.5t173 -495.5q0 -92 -16 -170.5t-48.5 -141.5t-88 -98.5t-128.5 -35.5q-82 0 -139.5 41t-69.5 102q-57 -65 -115 -97t-139 -32q-109 0 -183.5 58t-74.5 174q0 69 29 117.5t85.5 75.5t127.5 38.5t166 11.5 h75v35q0 78 -44 116t-136 38q-55 0 -97 -13.5t-66 -26.5t-36 -13q-23 0 -39 29t-16 55q0 49 88 84.5t191 35.5q139 0 227 -70t88 -198v-344q7 -50 31 -75t59 -25q39 0 65.5 29.5t38.5 79.5t16.5 95.5t4.5 96.5q0 277 -128 423t-390 146q-119 0 -212 -32t-152.5 -85.5 t-98 -130.5t-54 -160.5t-15.5 -181.5q0 -91 14 -169.5t48 -150.5t86.5 -122.5t134.5 -80.5t186 -30q75 0 135.5 14t95.5 28t49 14q24 0 39.5 -21.5t15.5 -42.5q0 -36 -61.5 -65t-143 -43.5t-155.5 -14.5q-93 0 -178.5 25.5t-161 80.5t-131 134t-87.5 192.5t-32 249.5z M604 287q0 -55 32 -83t85 -28q81 0 139 52t58 114v84h-62q-124 0 -188 -31t-64 -108z" />
<glyph unicode="A" horiz-adv-x="1150" d="M29 90q0 13 2 19l407 1327q11 35 49.5 54t87.5 19t89 -19t51 -54l405 -1327q4 -12 4 -19q0 -36 -44 -63t-93 -27q-60 0 -74 45l-84 291h-505l-84 -291q-14 -45 -76 -45q-48 0 -91.5 26t-43.5 64zM371 510h409l-205 702z" />
<glyph unicode="B" horiz-adv-x="1132" d="M135 70v1355q0 34 28.5 53t67.5 19h373q70 0 127.5 -9t112.5 -33t92 -62.5t59.5 -102t22.5 -147.5q0 -125 -46.5 -210.5t-127.5 -121.5q104 -40 157.5 -117.5t53.5 -224.5v-39q0 -115 -31 -200t-87.5 -134.5t-128.5 -72.5t-161 -23h-416q-43 0 -69.5 20.5t-26.5 49.5z M350 193h256q232 0 232 253v33q0 130 -59 188t-173 58h-256v-532zM350 897h244q207 0 207 211q0 100 -55.5 148.5t-155.5 48.5h-240v-408z" />
<glyph unicode="C" horiz-adv-x="1107" d="M121 444v596q0 121 35.5 211t99 142.5t143.5 78t176 25.5q209 0 337 -103.5t128 -267.5q0 -66 -24.5 -89t-83.5 -23q-106 0 -109 71q-12 220 -239 220q-246 0 -246 -265v-596q0 -264 250 -264q50 0 89 10t63.5 30.5t40.5 41t24.5 51t11.5 50.5t6 49q5 71 107 71 q60 0 85 -23.5t25 -88.5q0 -170 -128.5 -276.5t-338.5 -106.5q-76 0 -142 15.5t-124 50t-98.5 86.5t-64 129.5t-23.5 174.5z" />
<glyph unicode="D" horiz-adv-x="1173" d="M135 70v1357q0 29 27 49.5t69 20.5h363q101 0 182.5 -25.5t145 -78t98.5 -142.5t35 -211v-583q0 -121 -35 -211t-98.5 -142.5t-145 -78t-182.5 -25.5h-363q-42 0 -69 20.5t-27 49.5zM352 193h242q118 0 181 65.5t63 198.5v583q0 133 -63 199t-181 66h-242v-1112z" />
<glyph unicode="E" horiz-adv-x="1071" d="M135 72v1353q0 33 29 52.5t67 19.5h730q34 0 52.5 -28t18.5 -66q0 -41 -19 -69.5t-52 -28.5h-609v-469h316q33 0 52 -25.5t19 -62.5q0 -33 -18.5 -58.5t-52.5 -25.5h-316v-471h609q33 0 52 -28.5t19 -70.5q0 -38 -18.5 -66t-52.5 -28h-730q-38 0 -67 19.5t-29 52.5z" />
<glyph unicode="F" horiz-adv-x="1028" d="M135 72v1353q0 33 29 52.5t67 19.5h719q34 0 52 -28t18 -66q0 -42 -18.5 -70t-51.5 -28h-598v-469h318q32 0 50.5 -25.5t18.5 -62.5q0 -33 -17.5 -58.5t-51.5 -25.5h-318v-592q0 -35 -31.5 -53.5t-76.5 -18.5q-44 0 -76.5 19t-32.5 53z" />
<glyph unicode="G" horiz-adv-x="1138" d="M121 444v596q0 121 35 211t98 142.5t142.5 78t176.5 25.5q207 0 337 -103.5t130 -275.5q0 -60 -25.5 -82t-82.5 -22q-106 0 -109 71q-10 101 -65 160.5t-178 59.5q-117 0 -179.5 -66t-62.5 -199v-596q0 -133 62 -198.5t180 -65.5q117 0 180 66t63 198v168h-207 q-32 0 -50.5 26t-18.5 62q0 34 18.5 60t50.5 26h353q33 0 52 -21t19 -52v-269q0 -121 -35 -210.5t-99 -142.5t-145 -78t-181 -25q-101 0 -182 25t-144.5 78t-98 142.5t-34.5 210.5z" />
<glyph unicode="H" horiz-adv-x="1214" d="M135 72v1355q0 34 32.5 52t76.5 18q45 0 76.5 -17.5t31.5 -52.5v-565h510v565q0 34 32.5 52t76.5 18q45 0 76.5 -17.5t31.5 -52.5v-1355q0 -34 -32 -53t-76 -19q-43 0 -76 19.5t-33 52.5v618h-510v-618q0 -34 -32 -53t-76 -19q-43 0 -76 19.5t-33 52.5z" />
<glyph unicode="I" horiz-adv-x="487" d="M135 72v1355q0 34 32.5 52t76.5 18q45 0 76.5 -17.5t31.5 -52.5v-1355q0 -34 -32 -53t-76 -19q-43 0 -76 19.5t-33 52.5z" />
<glyph unicode="J" horiz-adv-x="1085" d="M35 379q0 59 26 81.5t84 22.5q104 0 107 -71q3 -101 62.5 -166.5t179.5 -65.5q119 0 182 65.5t63 198.5v861h-239q-33 0 -52.5 28.5t-19.5 69.5q0 38 18 66t54 28h360q38 0 67 -19.5t29 -52.5v-981q0 -121 -35 -211t-98 -142.5t-143 -77.5t-178 -25q-207 0 -337 107 t-130 284z" />
<glyph unicode="K" horiz-adv-x="1107" d="M135 72v1355q0 34 32.5 52t76.5 18q45 0 76.5 -17.5t31.5 -52.5v-622l500 661q19 31 61 31t83.5 -36.5t41.5 -76.5q0 -24 -16 -43l-393 -491l467 -711q12 -18 12 -39q0 -39 -40.5 -72.5t-86.5 -33.5q-53 0 -78 41l-418 633l-133 -168v-428q0 -34 -32 -53t-76 -19 q-43 0 -76 19.5t-33 52.5z" />
<glyph unicode="L" horiz-adv-x="976" d="M135 72v1355q0 34 32.5 52t76.5 18q45 0 76.5 -17.5t31.5 -52.5v-1234h533q31 0 48 -28.5t17 -68.5q0 -38 -17.5 -67t-47.5 -29h-654q-38 0 -67 19.5t-29 52.5z" />
<glyph unicode="M" horiz-adv-x="1406" d="M135 72v1317q0 56 31.5 82t77.5 26q60 0 97 -26t75 -97l286 -543l291 543q38 71 74.5 97t95.5 26q47 0 78 -26t31 -82v-1317q0 -33 -32.5 -52.5t-76.5 -19.5q-43 0 -75.5 19.5t-32.5 52.5v983l-275 -508q-30 -49 -80 -49q-49 0 -73 49l-275 520v-995q0 -34 -32 -53 t-76 -19q-43 0 -76 19.5t-33 52.5z" />
<glyph unicode="N" horiz-adv-x="1214" d="M135 72v1353q0 36 31.5 54t77.5 18q58 0 92.5 -26t71.5 -97l454 -887v940q0 34 32.5 52t76.5 18q45 0 76.5 -17.5t31.5 -52.5v-1355q0 -34 -32 -53t-76 -19q-85 0 -129 80l-490 932v-940q0 -34 -32 -53t-76 -19q-43 0 -76 19.5t-33 52.5z" />
<glyph unicode="O" d="M121 444v596q0 121 34.5 211t98 142.5t144.5 78t182 25.5q100 0 181.5 -25.5t145 -78t98.5 -142.5t35 -211v-596q0 -121 -35 -210.5t-99 -142.5t-145 -78t-181 -25q-101 0 -182 25t-144.5 78t-98 142.5t-34.5 210.5zM338 444q0 -133 62 -198.5t180 -65.5q117 0 180 66 t63 198v596q0 132 -63.5 198.5t-179.5 66.5q-117 0 -179.5 -66t-62.5 -199v-596z" />
<glyph unicode="P" horiz-adv-x="1116" d="M135 72v1355q0 29 23.5 49.5t60.5 20.5h399q98 0 177 -24.5t141.5 -76t96.5 -140.5t34 -209v-17q0 -119 -35 -208t-99 -141.5t-145.5 -77.5t-181.5 -25h-254v-506q0 -34 -32 -53t-76 -19q-43 0 -76 19.5t-33 52.5zM352 750h254q116 0 180 67t64 199v24q0 132 -63.5 198.5 t-180.5 66.5h-254v-555z" />
<glyph unicode="Q" d="M121 444v596q0 122 34.5 212t98 142.5t144.5 77.5t182 25q100 0 181 -25t145 -77.5t99 -142.5t35 -212v-596q0 -215 -105 -325.5t-282 -126.5v-144q0 -33 -21.5 -52t-51.5 -19t-51 19t-21 52v144q-179 16 -283 126t-104 326zM338 444q0 -216 170 -251v124q0 35 21 52.5 t51 17.5t51.5 -18t21.5 -52v-122q170 37 170 249v596q0 132 -63.5 198.5t-179.5 66.5q-117 0 -179.5 -66t-62.5 -199v-596z" />
<glyph unicode="R" horiz-adv-x="1144" d="M135 72v1355q0 29 20.5 49.5t51.5 20.5h389q80 0 148 -13t129 -43.5t103 -77.5t66.5 -119t24.5 -165q0 -173 -78.5 -272.5t-210.5 -132.5l287 -539q8 -13 8 -31q0 -41 -42.5 -75.5t-88.5 -34.5q-54 0 -86 63l-299 586h-207v-571q0 -34 -32 -53t-76 -19q-43 0 -75 19.5 t-32 52.5zM350 817h246q254 0 254 244t-254 244h-246v-488z" />
<glyph unicode="S" horiz-adv-x="1048" d="M59 225q0 39 29.5 78t65.5 39q20 0 42.5 -16.5t48 -40.5t58.5 -48t85.5 -40.5t115.5 -16.5q115 0 186.5 55.5t71.5 161.5q0 58 -23 103.5t-61.5 76t-88.5 56.5t-105 48.5t-110 47.5t-105 58.5t-88.5 75.5t-61.5 105t-23 142q0 88 28.5 157t74.5 112.5t109 72t127 40 t134 11.5q56 0 115.5 -7.5t120 -23t99 -46t38.5 -70.5q0 -38 -24.5 -77.5t-65.5 -39.5q-17 0 -43.5 12t-53 27t-77 27t-109.5 12q-118 0 -187 -47t-69 -140q0 -48 23 -86t61.5 -63.5t88.5 -48t105 -44.5t110 -47t105 -62t88.5 -84t61.5 -117.5t23 -157.5q0 -143 -61 -242.5 t-164.5 -146.5t-241.5 -47q-188 0 -320.5 79t-132.5 162z" />
<glyph unicode="T" horiz-adv-x="1050" d="M29 1399q0 39 18.5 68.5t52.5 29.5h850q34 0 53 -28.5t19 -67.5q0 -42 -19 -72.5t-53 -30.5h-315v-1226q0 -33 -33 -52.5t-76 -19.5q-44 0 -76 19t-32 53v1226h-318q-32 0 -51.5 29.5t-19.5 71.5z" />
<glyph unicode="U" horiz-adv-x="1193" d="M129 444v983q0 34 32 52t77 18q44 0 76 -18t32 -52v-983q0 -132 65 -198t185 -66q121 0 186.5 66t65.5 198v983q0 35 31.5 52.5t76.5 17.5q44 0 76.5 -18t32.5 -52v-983q0 -121 -35.5 -210.5t-100.5 -142.5t-148 -78t-185 -25t-184.5 25t-147 78t-100 142.5t-35.5 210.5z " />
<glyph unicode="V" horiz-adv-x="1148" d="M27 1407q0 38 43.5 64t91.5 26q62 0 76 -45l337 -1167l336 1167q14 45 74 45q49 0 93 -27t44 -63q0 -6 -4 -18l-405 -1328q-10 -35 -49.5 -54t-88.5 -19t-87.5 19t-49.5 54l-409 1328q-2 6 -2 18z" />
<glyph unicode="W" horiz-adv-x="1734" d="M29 1409q0 36 43 62t92 26q64 0 76 -45l335 -1167l185 733q14 63 108 63q90 0 107 -63l186 -733l334 1167q12 45 76 45q49 0 92 -26t43 -62q0 -14 -2 -20l-406 -1328q-11 -35 -51 -54t-88 -19t-87.5 19t-47.5 54l-156 619l-155 -619q-9 -35 -49 -54t-89 -19t-88 19 t-49 54l-407 1328q-2 6 -2 20z" />
<glyph unicode="X" horiz-adv-x="1091" d="M37 100q0 19 12 43l354 607l-344 602q-16 29 -16 53q0 41 43.5 69.5t93.5 28.5q51 0 82 -61l283 -524l286 524q28 61 82 61q49 0 92.5 -28.5t43.5 -69.5q0 -22 -17 -53l-344 -602l354 -607q15 -30 15 -43q0 -42 -46.5 -74t-95.5 -32q-43 0 -67 49l-303 545l-299 -545 q-27 -49 -70 -49q-47 0 -93 32t-46 74z" />
<glyph unicode="Y" horiz-adv-x="1142" d="M27 1407q0 37 45 63.5t92 26.5q45 0 72 -49l337 -649l336 649q24 49 72 49q47 0 91 -26.5t44 -63.5q0 -19 -6 -31l-424 -764q-4 -12 -4 -22v-518q0 -33 -33 -52.5t-76 -19.5q-44 0 -76 19t-32 53v518q0 4 -6 22l-424 764q-8 16 -8 31z" />
<glyph unicode="Z" horiz-adv-x="1040" d="M37 63q0 39 22 76l635 1166h-555q-33 0 -52 28t-19 68q0 39 18.5 67.5t52.5 28.5h764q70 0 70 -61q0 -35 -25 -80l-635 -1163h621q32 0 52 -29.5t20 -67.5q0 -36 -20 -66t-52 -30h-830q-67 0 -67 63z" />
<glyph unicode="[" horiz-adv-x="671" d="M123 29v1472q0 32 29.5 52t68.5 20h342q33 0 52.5 -28.5t19.5 -65.5q0 -41 -20.5 -70t-51.5 -29h-223v-1230h223q31 0 51.5 -29t20.5 -70q0 -37 -19.5 -65.5t-52.5 -28.5h-342q-40 0 -69 19.5t-29 52.5z" />
<glyph unicode="\" horiz-adv-x="741" d="M43 1468q0 31 25.5 54.5t60.5 23.5q49 0 66 -45l501 -1403q2 -8 2 -22q0 -30 -24 -54t-56 -24q-24 0 -43 13t-26 36l-500 1397q-6 12 -6 24z" />
<glyph unicode="]" horiz-adv-x="669" d="M37 51q0 41 19 70t50 29h224v1230h-224q-31 0 -50 29t-19 70q0 37 18 65.5t51 28.5h345q39 0 67.5 -20t28.5 -52v-1472q0 -33 -29 -52.5t-67 -19.5h-345q-33 0 -51 28.5t-18 65.5z" />
<glyph unicode="^" horiz-adv-x="571" d="M0 1264q0 44 37 63l213 115q20 10 35 10q17 0 34 -10l213 -113q39 -23 39 -67q0 -27 -15.5 -48.5t-37.5 -21.5q-3 0 -10 2.5t-10 3.5l-213 115l-213 -115q-9 -6 -19 -6q-23 0 -38 21.5t-15 50.5z" />
<glyph unicode="_" horiz-adv-x="663" d="M-66 -92q0 39 20 65.5t50 26.5h655q28 0 51 -27.5t23 -64.5q0 -38 -22.5 -64t-51.5 -26h-655q-31 0 -50.5 25t-19.5 65z" />
<glyph unicode="`" horiz-adv-x="376" d="M0 1368q0 31 20.5 57.5t49.5 26.5q6 0 22 -4l254 -129q31 -16 31 -53q0 -31 -21 -57.5t-49 -26.5q-14 0 -26 6l-248 125q-33 14 -33 55z" />
<glyph unicode="a" horiz-adv-x="942" d="M51 254q0 84 34 142.5t100 91t149 46t196 13.5h91v37q0 56 -18.5 104t-66 82.5t-118.5 34.5q-51 0 -92.5 -9.5t-62.5 -21.5t-40.5 -21.5t-32.5 -9.5q-36 0 -56.5 34t-20.5 75q0 53 99.5 92t209.5 39q109 0 191 -32.5t129.5 -89.5t70.5 -126t23 -149v-514q0 -30 -30.5 -51 t-74.5 -21q-41 0 -69.5 21.5t-28.5 50.5v71q-136 -159 -309 -159q-119 0 -196 69t-77 201zM268 281q0 -66 36.5 -100t96.5 -34q77 0 148.5 66t71.5 139v76h-52q-53 0 -92 -2.5t-80.5 -11.5t-68 -24.5t-43.5 -43t-17 -65.5z" />
<glyph unicode="b" horiz-adv-x="1036" d="M115 72v1407q0 31 29 50t75 19q47 0 79 -19.5t32 -49.5v-652q36 66 104.5 111t159.5 45q151 0 259 -118.5t108 -284.5v-189q0 -105 -49.5 -199t-133.5 -151t-178 -57q-93 0 -171 46.5t-112 112.5v-71q0 -27 -29.5 -49.5t-68.5 -22.5q-44 0 -74 22t-30 50zM330 344 q0 -45 64 -107.5t145 -62.5q83 0 144.5 66t61.5 151v189q0 82 -62 147.5t-146 65.5q-80 0 -143.5 -59t-63.5 -154v-236z" />
<glyph unicode="c" horiz-adv-x="872" d="M80 391v184q0 182 107 295t317 113q134 0 223.5 -46t89.5 -103q0 -35 -25 -70t-61 -35q-15 0 -41.5 16t-69.5 32t-100 16q-113 0 -169 -57t-56 -161v-184q0 -217 227 -217q59 0 102 17t69.5 34t43.5 17q40 0 66 -33.5t26 -69.5q0 -57 -94 -106t-229 -49 q-212 0 -319 111.5t-107 295.5z" />
<glyph unicode="d" horiz-adv-x="1038" d="M76 391v189q0 166 107.5 284.5t258.5 118.5q91 0 160.5 -45t106.5 -111v652q0 30 31 49.5t77 19.5t76.5 -19.5t30.5 -49.5v-1407q0 -27 -31.5 -49.5t-75.5 -22.5q-39 0 -68.5 22.5t-29.5 49.5v71q-32 -66 -111 -112.5t-172 -46.5q-94 0 -177.5 57t-133 151t-49.5 199z M291 391q0 -85 61.5 -151t145.5 -66q81 0 146 62.5t65 107.5v236q0 95 -63.5 154t-145.5 59q-84 0 -146.5 -66t-62.5 -147v-189z" />
<glyph unicode="e" horiz-adv-x="970" d="M76 391v195q0 162 125 279.5t301 117.5q168 0 287.5 -107.5t119.5 -271.5q0 -49 -11.5 -83.5t-27 -52t-43 -27t-49 -11.5t-55.5 -2h-432v-47q0 -102 73.5 -162.5t192.5 -60.5q49 0 92 12t67 27t49 27t42 12q35 0 59.5 -32.5t24.5 -64.5q0 -52 -98 -103.5t-242 -51.5 q-210 0 -342.5 112.5t-132.5 294.5zM291 561h340q44 0 60 12.5t16 49.5q0 82 -60 139t-147 57t-148 -54.5t-61 -137.5v-66z" />
<glyph unicode="f" horiz-adv-x="671" d="M115 70v1087q0 164 106.5 277.5t255.5 113.5h94q39 0 61.5 -27t22.5 -65t-22.5 -65t-61.5 -27h-53q-81 0 -134.5 -53t-53.5 -133v-207h266q27 0 43 -24t16 -56t-16 -56t-43 -24h-266v-741q0 -30 -33 -50t-78 -20t-74.5 19.5t-29.5 50.5z" />
<glyph unicode="g" horiz-adv-x="948" d="M39 -178q0 144 158 219q-47 21 -72 52t-25 83q0 53 26 88t77 68q-57 45 -89 112t-32 146v57q0 149 105 242.5t276 93.5q142 0 237 -70q61 138 134 138q38 0 63 -24t25 -50q0 -32 -35 -51q-64 -26 -103 -82q66 -81 66 -197v-57q0 -147 -109 -243.5t-278 -96.5 q-79 0 -141 24q-39 -27 -39 -57t34.5 -48t89 -26t121 -15.5t133 -23.5t121 -43t89 -81.5t34.5 -131.5q0 -78 -34.5 -138.5t-94.5 -97t-136 -55t-165 -18.5q-121 0 -219 33t-157.5 98.5t-59.5 151.5zM242 -156q0 -74 64 -117.5t167 -43.5q99 0 161 43t62 116q0 32 -13.5 57.5 t-41 41.5t-54.5 26.5t-70 16.5t-69 8.5t-69 5.5q-137 -52 -137 -154zM291 592q0 -90 46.5 -147.5t129.5 -57.5q80 0 127 56.5t47 146.5v57q0 86 -47 142.5t-129 56.5q-81 0 -127.5 -56.5t-46.5 -142.5v-55z" />
<glyph unicode="h" horiz-adv-x="1052" d="M115 72v1407q0 31 29.5 50t76.5 19q44 0 76.5 -19.5t32.5 -49.5v-652q32 66 101 111t161 45q145 0 250.5 -119t105.5 -284v-508q0 -33 -32.5 -52.5t-75.5 -19.5q-41 0 -74 19.5t-33 52.5v508q0 81 -62 147t-145 66q-78 0 -137 -59t-59 -154v-508q0 -27 -33.5 -49.5 t-75.5 -22.5q-45 0 -75.5 22t-30.5 50z" />
<glyph unicode="i" horiz-adv-x="440" d="M94 1327q0 46 36.5 79.5t88.5 33.5t88.5 -33.5t36.5 -79.5q0 -45 -36.5 -79t-88.5 -34t-88.5 34t-36.5 79zM113 72v829q0 31 30 50.5t76 19.5t77.5 -20t31.5 -50v-829q0 -27 -32.5 -49.5t-76.5 -22.5t-75 22.5t-31 49.5z" />
<glyph unicode="j" horiz-adv-x="440" d="M-78 -371q0 42 24.5 68.5t59.5 26.5t57 14t32.5 44t14 62t3.5 82v975q0 31 30 50.5t76 19.5t77.5 -20t31.5 -50v-975q0 -178 -73.5 -282.5t-219.5 -104.5q-61 0 -87 25.5t-26 64.5zM94 1327q0 46 36.5 79.5t88.5 33.5t88.5 -33.5t36.5 -79.5q0 -45 -36.5 -79t-88.5 -34 t-88.5 34t-36.5 79z" />
<glyph unicode="k" horiz-adv-x="983" d="M115 72v1407q0 31 29 50t75 19q47 0 79 -19.5t32 -49.5v-912l428 394q18 18 45 18q36 0 70 -33t34 -69q0 -28 -18 -46l-264 -235l321 -463q12 -18 12 -37q0 -37 -40.5 -72.5t-79.5 -35.5q-37 0 -58 30l-301 445l-149 -135v-256q0 -27 -33 -49.5t-78 -22.5q-44 0 -74 22 t-30 50z" />
<glyph unicode="l" horiz-adv-x="477" d="M131 72v1407q0 31 30 50t77 19q45 0 76.5 -19.5t31.5 -49.5v-1407q0 -27 -32.5 -49.5t-75.5 -22.5q-45 0 -76 22t-31 50z" />
<glyph unicode="m" horiz-adv-x="1626" d="M113 72v829q0 31 29.5 50.5t76.5 19.5q39 0 67.5 -20t28.5 -50v-74q38 67 107.5 111.5t165.5 44.5q90 0 161 -56t107 -149q52 101 134 153t175 52q146 0 251.5 -109t105.5 -294v-508q0 -27 -33 -49.5t-76 -22.5q-41 0 -73.5 22.5t-32.5 49.5v508q0 100 -57.5 157.5 t-133.5 57.5q-77 0 -134.5 -58t-57.5 -153v-514q0 -34 -32 -52t-77 -18q-42 0 -74 18t-32 52v512q0 92 -56.5 151.5t-134.5 59.5q-77 0 -133.5 -57t-56.5 -156v-508q0 -27 -33.5 -49.5t-75.5 -22.5q-45 0 -75.5 22t-30.5 50z" />
<glyph unicode="n" horiz-adv-x="1050" d="M113 72v829q0 31 29.5 50.5t76.5 19.5q40 0 68 -20t28 -50v-74q34 66 106 111t169 45q145 0 250.5 -119t105.5 -284v-508q0 -34 -32 -53t-76 -19q-41 0 -74 19.5t-33 52.5v508q0 82 -61.5 147.5t-145.5 65.5q-78 0 -137 -59t-59 -154v-508q0 -27 -33.5 -49.5t-75.5 -22.5 q-45 0 -75.5 22t-30.5 50z" />
<glyph unicode="o" horiz-adv-x="997" d="M74 391v189q0 162 125 282.5t299 120.5q111 0 209 -54t156.5 -147.5t58.5 -201.5v-189q0 -160 -128 -283.5t-296 -123.5q-111 0 -209.5 56.5t-156.5 150.5t-58 200zM289 391q0 -85 61.5 -151t147.5 -66q85 0 147 66t62 151v189q0 81 -62.5 147t-146.5 66 q-86 0 -147.5 -65.5t-61.5 -147.5v-189z" />
<glyph unicode="p" horiz-adv-x="1036" d="M115 -389v1290q0 30 29.5 50t72.5 20t71.5 -19.5t28.5 -50.5v-74q37 66 110 111t165 45q153 0 261 -118.5t108 -284.5v-189q0 -105 -49.5 -199t-133.5 -151t-178 -57q-89 0 -163.5 46.5t-106.5 112.5v-532q0 -28 -33 -50t-78 -22q-44 0 -74 21.5t-30 50.5zM330 344 q0 -46 62.5 -108t144.5 -62t145 66.5t63 150.5v189q0 81 -63.5 147t-149.5 66q-80 0 -141 -59t-61 -154v-236z" />
<glyph unicode="q" horiz-adv-x="1038" d="M76 391v189q0 166 107.5 284.5t260.5 118.5q94 0 166 -45t109 -111v74q0 31 28.5 50.5t71.5 19.5q44 0 74.5 -20t30.5 -50v-1290q0 -28 -31 -50t-76 -22t-76.5 22t-31.5 50v532q-34 -66 -109 -112.5t-164 -46.5q-94 0 -177.5 57t-133 151t-49.5 199zM291 391 q0 -84 63 -150.5t146 -66.5q82 0 145.5 62.5t63.5 107.5v236q0 95 -62.5 154t-142.5 59q-86 0 -149.5 -66t-63.5 -147v-189z" />
<glyph unicode="r" horiz-adv-x="737" d="M113 72v829q0 31 29 50.5t75 19.5q41 0 69.5 -20t28.5 -50v-90q35 71 105 121.5t155 50.5h66q33 0 57.5 -28t24.5 -66q0 -39 -24.5 -67.5t-57.5 -28.5h-66q-99 0 -173 -83.5t-74 -217.5v-420q0 -27 -33 -49.5t-78 -22.5q-44 0 -74 22t-30 50z" />
<glyph unicode="s" horiz-adv-x="827" d="M55 147q0 31 22 64t52 33q16 0 40.5 -14.5t49 -32.5t73.5 -32.5t109 -14.5q93 0 133.5 31.5t40.5 78.5q0 38 -21 66t-56 43.5t-79 30.5t-90.5 27t-90.5 33t-79 48t-56 73t-21 107q0 56 19 106t58.5 93.5t109.5 69.5t163 26q118 0 212.5 -36t94.5 -85q0 -29 -24 -66.5 t-58 -37.5q-16 0 -47.5 15t-77.5 29.5t-96 14.5q-83 0 -124.5 -37t-41.5 -82q0 -36 27.5 -60.5t71.5 -39t97 -28.5t106 -35t97 -51.5t71.5 -85.5t27.5 -130q0 -132 -94.5 -208t-265.5 -76q-147 0 -250 51t-103 112z" />
<glyph unicode="t" horiz-adv-x="673" d="M111 319v1027q0 29 33 49t73 20q42 0 75.5 -19.5t33.5 -49.5v-375h249q27 0 43.5 -24t16.5 -56t-16.5 -56t-43.5 -24h-249v-492q0 -74 32 -104.5t111 -30.5h72q43 0 67.5 -27t24.5 -65t-24.5 -65t-67.5 -27h-72q-178 0 -268 77.5t-90 241.5z" />
<glyph unicode="u" horiz-adv-x="1054" d="M104 387v512q0 28 32.5 50t76.5 22q42 0 74 -22t32 -50v-512q0 -83 62 -148t147 -65q86 0 147.5 64.5t61.5 148.5v514q0 28 32.5 49t76.5 21q45 0 74.5 -21t29.5 -49v-514q0 -162 -125 -282.5t-297 -120.5t-298 121t-126 282z" />
<glyph unicode="v" horiz-adv-x="940" d="M18 887q0 36 47.5 64t94.5 28q52 0 65 -39l244 -647l244 643q15 43 65 43q40 0 91 -28.5t51 -63.5q0 -12 -9 -35l-344 -829q-9 -21 -36.5 -32t-61.5 -11q-80 0 -98 43l-342 829q-11 22 -11 35z" />
<glyph unicode="w" horiz-adv-x="1400" d="M20 889q0 36 46 63t92 27q51 0 65 -39l228 -637l174 565q14 47 75 47q62 0 76 -47l172 -569l230 641q12 39 63 39q45 0 91 -27t46 -65q0 -17 -8 -33l-317 -831q-16 -43 -86 -43t-88 40l-179 529l-176 -522q-9 -22 -34.5 -34.5t-57.5 -12.5q-68 0 -86 47l-317 827 q-9 27 -9 35z" />
<glyph unicode="x" horiz-adv-x="909" d="M41 90q0 22 14 39l254 365l-241 344q-15 20 -15 36q0 37 49 73t93 36q36 0 51 -25l209 -327l209 325q16 27 53 27q41 0 90 -36t49 -73q0 -16 -14 -36l-244 -346l256 -363q14 -19 14 -39q0 -35 -47 -70.5t-90 -35.5q-39 0 -55 24l-221 338l-222 -338q-18 -24 -57 -24 q-38 0 -86.5 35t-48.5 71z" />
<glyph unicode="y" horiz-adv-x="935" d="M20 -369q0 40 15 66.5t45 26.5q41 0 86 20.5t88 59.5t76 106t43 149l-344 795q-9 12 -9 29q0 39 48 70.5t94 31.5q51 0 65 -39l258 -665l222 665q17 39 61 39t93.5 -32t49.5 -74q0 -19 -4 -25l-303 -801q-75 -198 -123 -281q-112 -193 -281 -226q-38 -7 -79 -7 q-48 0 -74.5 19t-26.5 73z" />
<glyph unicode="z" horiz-adv-x="870" d="M47 78q0 33 37 86l438 629h-389q-28 0 -47.5 26.5t-19.5 63.5q0 36 18.5 62t48.5 26h592q31 0 52.5 -20t21.5 -56q0 -40 -33 -88l-440 -629h434q29 0 49 -26t20 -64q0 -36 -19.5 -62t-49.5 -26h-637q-37 0 -56.5 23.5t-19.5 54.5z" />
<glyph unicode="{" horiz-adv-x="702" d="M51 791q0 31 12.5 48.5t30.5 24t36.5 11t31 15t12.5 30.5q0 17 -18.5 144t-18.5 163q0 89 59 169.5t154.5 128.5t198.5 48q62 0 90.5 -28t28.5 -68q0 -35 -19.5 -63t-52.5 -28q-55 0 -109.5 -21t-93.5 -65.5t-39 -101.5q0 -29 18.5 -154.5t18.5 -146.5q0 -37 -25.5 -70.5 t-48.5 -40.5q24 -5 49 -37t25 -71q0 -24 -18.5 -184.5t-18.5 -188.5q0 -45 26 -78t66 -50t78 -24.5t72 -7.5q37 0 54.5 -29.5t17.5 -62.5q0 -94 -121 -94q-162 0 -286 93t-124 231q0 38 18.5 196t18.5 176q0 21 -12.5 32.5t-31 17t-36.5 12t-30.5 25t-12.5 49.5z" />
<glyph unicode="|" horiz-adv-x="462" d="M123 29v1474q0 31 30.5 50.5t77.5 19.5q45 0 77 -20t32 -50v-1474q0 -28 -32.5 -50t-76.5 -22q-46 0 -77 21.5t-31 50.5z" />
<glyph unicode="}" horiz-adv-x="702" d="M35 53q0 34 17 63t54 29q34 0 72 7.5t78 24.5t66 50t26 78q0 28 -18.5 188.5t-18.5 184.5q0 39 25 71t49 37q-23 7 -48.5 40.5t-25.5 70.5q0 21 18.5 146.5t18.5 154.5q0 84 -77 136t-165 52q-33 0 -52 28t-19 63q0 40 28.5 68t90.5 28q158 0 284.5 -105.5t126.5 -240.5 q0 -36 -18.5 -163t-18.5 -144q0 -20 12.5 -30.5t31 -15t36.5 -11t30.5 -24t12.5 -48.5t-12.5 -49.5t-30.5 -25t-36.5 -12t-31 -17t-12.5 -32.5q0 -18 18.5 -176t18.5 -196q0 -138 -123.5 -231t-285.5 -93q-121 0 -121 94z" />
<glyph unicode="~" horiz-adv-x="835" d="M80 502q0 37 20 64.5t50 41t57 19.5t51 6q58 0 143 -32t140 -32q50 0 96 26t61 26q28 0 43 -25t15 -45q0 -32 -13.5 -57t-33 -38.5t-44.5 -22t-45 -11t-38 -2.5q-65 0 -149.5 31.5t-135.5 31.5q-49 0 -97.5 -27.5t-62.5 -27.5q-29 0 -43 25t-14 49z" />
<glyph unicode="&#xa1;" horiz-adv-x="430" d="M92 1389q0 50 36 86t85 36q52 0 87.5 -36t35.5 -86q0 -51 -35.5 -87t-87.5 -36q-50 0 -85.5 36t-35.5 87zM106 86q0 149 13.5 482.5t13.5 480.5q0 31 26 48t56 17q35 0 59.5 -16.5t24.5 -48.5q0 -147 12.5 -480.5t12.5 -482.5q0 -46 -31 -72t-78 -26q-46 0 -77.5 26 t-31.5 72z" />
<glyph unicode="&#xa2;" horiz-adv-x="866" d="M55 735v39q0 166 88.5 275.5t264.5 130.5v180q0 28 19 45.5t48 17.5q27 0 47.5 -18t20.5 -45v-182q109 -11 182.5 -52t73.5 -92q0 -35 -26 -67.5t-62 -32.5q-13 0 -34 13t-55.5 28.5t-78.5 19.5v-479q44 5 78 21.5t55 30.5t35 14q41 0 67.5 -31.5t26.5 -69.5 q0 -50 -77.5 -93.5t-184.5 -55.5v-187q0 -25 -21 -45t-47 -20q-28 0 -47.5 19.5t-19.5 45.5v187q-176 19 -264.5 128t-88.5 275zM246 735q0 -183 162 -219v479q-162 -39 -162 -221v-39z" />
<glyph unicode="&#xa3;" horiz-adv-x="1067" d="M45 96q0 39 19 68t51 29h114l76 557h-129q-28 0 -43.5 23.5t-15.5 57.5q0 32 15.5 56t43.5 24h154l35 244q26 179 169 298.5t324 119.5h62q35 0 55 -29t20 -67q0 -37 -20 -66t-55 -29h-72q-111 0 -182.5 -65t-85.5 -162l-35 -244h266q28 0 43.5 -24t15.5 -56 q0 -33 -15.5 -57t-43.5 -24h-291l-78 -557h486q32 0 49.5 -28.5t17.5 -68.5q0 -39 -17.5 -67.5t-49.5 -28.5h-813q-32 0 -51 29t-19 67z" />
<glyph unicode="&#xa4;" horiz-adv-x="944" d="M109 670q0 14 12 26l59 58q-69 94 -69 213t69 213l-53 51q-12 12 -12 26q0 20 15.5 36t35.5 16q15 0 29 -11l49 -49q99 86 229 86q120 0 223 -80l54 50q10 10 28 10q20 0 35.5 -16t15.5 -35q0 -15 -12 -27l-55 -53q76 -95 76 -215t-76 -219l55 -54q12 -12 12 -26 q0 -19 -15.5 -35.5t-35.5 -16.5q-15 0 -26 11l-56 49q-100 -84 -223 -84q-128 0 -229 88l-58 -53q-11 -11 -26 -11q-20 0 -35.5 16.5t-15.5 35.5zM238 967q0 -96 69.5 -170t165.5 -74q97 0 167.5 74t70.5 168t-70 167.5t-168 73.5q-97 0 -166 -72.5t-69 -166.5z" />
<glyph unicode="&#xa5;" horiz-adv-x="1107" d="M45 1415q0 32 42 61t85 29q40 0 66 -51l313 -596l319 596q26 51 66 51q42 0 83.5 -29t41.5 -61q0 -17 -6 -29l-348 -593h161q29 0 51.5 -23.5t22.5 -56.5t-22.5 -55.5t-51.5 -22.5h-211v-139h211q28 0 51 -23t23 -55q0 -34 -22.5 -56t-51.5 -22h-211v-268 q0 -32 -31.5 -52t-74.5 -20q-44 0 -76.5 20t-32.5 52v268h-202q-32 0 -52 21t-20 55t20 57t52 23h202v139h-202q-32 0 -52 21t-20 55q0 36 20 59t52 23h153l-340 593q-8 11 -8 29z" />
<glyph unicode="&#xa6;" horiz-adv-x="460" d="M123 29v528q0 31 30 51.5t76 20.5q45 0 77 -21t32 -51v-528q0 -28 -32.5 -50t-76.5 -22q-45 0 -75.5 21.5t-30.5 50.5zM123 973v530q0 31 30 50.5t76 19.5q45 0 77 -20t32 -50v-530q0 -27 -33 -49.5t-76 -22.5q-44 0 -75 22.5t-31 49.5z" />
<glyph unicode="&#xa7;" horiz-adv-x="966" d="M88 203q0 48 24 68t70 20q92 0 92 -64q0 -31 7.5 -59t26 -58.5t58.5 -48.5t97 -18q99 0 150 49t51 135q0 57 -31 98t-80.5 66.5t-109.5 48.5t-120 54t-109.5 73t-80.5 114.5t-31 170.5v233q0 96 24.5 170.5t63 119t91 73t102 39t102.5 10.5q114 0 197 -48.5t121.5 -123 t38.5 -164.5q0 -51 -21.5 -70.5t-62.5 -19.5q-94 0 -94 78q0 29 -8 56t-25.5 54t-52.5 43.5t-84 16.5q-85 0 -138 -50t-53 -143q0 -57 32 -98t83 -66t112.5 -48t123 -54t112.5 -73t83 -114.5t32 -170.5v-232q0 -91 -24 -162.5t-62.5 -117t-92 -75.5t-109 -42t-116.5 -12 q-91 0 -166.5 29.5t-123 78t-73.5 109t-26 125.5zM285 815q0 -69 30.5 -117t81 -74.5t103.5 -45.5t110.5 -45t89.5 -58v49q0 69 -30.5 117t-81 74.5t-103.5 45.5t-110.5 45t-89.5 58v-49z" />
<glyph unicode="&#xa8;" horiz-adv-x="471" d="M0 1290q0 39 27.5 66.5t66.5 27.5q38 0 64 -27.5t26 -66.5t-26 -67.5t-64 -28.5q-39 0 -66.5 28.5t-27.5 67.5zM287 1290q0 38 27 66t65 28t65 -28t27 -66q0 -39 -27 -67.5t-65 -28.5t-65 28.5t-27 67.5z" />
<glyph unicode="&#xa9;" horiz-adv-x="1437" d="M90 733q0 132 38.5 244.5t102.5 189.5t147.5 131.5t171 79.5t175.5 25t175.5 -25.5t168.5 -80t143 -131t99 -186.5t37 -239q0 -132 -38.5 -244.5t-102.5 -189t-147.5 -131t-171 -79.5t-175.5 -25t-175.5 25.5t-168.5 80t-143 130.5t-99 186t-37 239zM203 733 q0 -241 140.5 -395t369.5 -154q231 0 376.5 155t145.5 402q0 241 -140.5 395t-369.5 154q-231 0 -376.5 -155t-145.5 -402zM487 602v299q0 131 65 192.5t169 61.5q106 0 173 -58t67 -151q0 -38 -15 -51.5t-49 -13.5q-63 0 -66 43q-1 20 -4 34.5t-12.5 36t-32.5 33.5t-57 12 q-111 0 -111 -139v-299q0 -139 113 -139q27 0 46.5 9t29.5 20.5t16.5 32t8 32t3.5 31.5q3 43 64 43q35 0 50.5 -15t15.5 -53q0 -96 -67 -155.5t-173 -59.5q-104 0 -169 61.5t-65 192.5z" />
<glyph unicode="&#xaa;" horiz-adv-x="667" d="M59 1063q0 107 81.5 149.5t232.5 42.5h57v23q0 57 -31 98t-96 41q-44 0 -74.5 -10.5t-48 -20.5t-28.5 -10q-25 0 -39.5 23.5t-14.5 52.5q0 35 67 62.5t140 27.5t127.5 -22t86 -60t46.5 -83.5t15 -98.5v-332q0 -21 -20.5 -36t-53.5 -15q-27 0 -46.5 15t-19.5 36v43 q-76 -83 -161 -98q-18 -4 -60 -4q-70 5 -115 49.5t-45 126.5zM211 1081q0 -41 22.5 -61.5t59.5 -20.5q50 0 93.5 41t43.5 90v44h-47q-172 0 -172 -93z" />
<glyph unicode="&#xab;" horiz-adv-x="952" d="M57 565q0 5 1 10t1.5 9t3 10t4 9.5t5.5 10.5l6 10.5t7.5 13t8.5 13.5l162 303q16 29 66 29t89.5 -35t39.5 -71q0 -11 -7 -25l-151 -285l151 -284q7 -10 7 -23q0 -37 -41 -72.5t-91 -35.5q-48 0 -63 30l-162 301q-5 8 -12.5 20.5t-10.5 18t-7 14t-5.5 15t-1.5 14.5z M479 565q0 8 1.5 15t6 16l7.5 15t11.5 19.5t12.5 20.5l162 303q13 29 63 29t90.5 -35t40.5 -71q0 -13 -6 -25l-151 -285l151 -284q6 -9 6 -23q0 -37 -41 -72.5t-92 -35.5q-46 0 -61 30l-162 301q-6 10 -15.5 25t-13 21.5t-7 16t-3.5 19.5z" />
<glyph unicode="&#xac;" horiz-adv-x="1005" d="M78 492q0 39 19.5 65.5t49.5 26.5h672q28 0 51 -27.5t23 -64.5v-291q0 -28 -32 -50t-77 -22t-75.5 21.5t-30.5 50.5v200h-531q-31 0 -50 25.5t-19 65.5z" />
<glyph unicode="&#xad;" horiz-adv-x="966" d="M84 492q0 39 20 65.5t50 26.5h655q28 0 51 -27.5t23 -64.5q0 -38 -22.5 -64.5t-51.5 -26.5h-655q-31 0 -50.5 25.5t-19.5 65.5z" />
<glyph unicode="&#xae;" horiz-adv-x="1437" d="M90 733q0 132 38.5 244.5t102.5 189.5t147.5 131.5t171 79.5t175.5 25t175.5 -25.5t168.5 -80t143 -131t99 -186.5t37 -239q0 -132 -38.5 -244.5t-102.5 -189t-147.5 -131t-171 -79.5t-175.5 -25t-175.5 25.5t-168.5 80t-143 130.5t-99 186t-37 239zM203 733 q0 -241 140.5 -395t369.5 -154q231 0 376.5 155t145.5 402q0 241 -140.5 395t-369.5 154q-231 0 -376.5 -155t-145.5 -402zM510 406v688q0 16 11.5 28.5t29.5 12.5h190q104 0 169 -52t65 -168q0 -87 -37 -139t-98 -71l129 -267q2 -4 2 -14q0 -24 -21 -44t-45 -20 q-25 0 -43 35l-137 289h-94v-278q0 -21 -17 -32.5t-43 -11.5q-25 0 -43 11.5t-18 32.5zM631 788h110q113 0 113 115q0 123 -113 123h-110v-238z" />
<glyph unicode="&#xaf;" horiz-adv-x="569" d="M0 1341q0 33 19.5 54.5t50.5 21.5h428q28 0 49.5 -22t21.5 -54q0 -31 -21 -51t-50 -20h-428q-31 0 -50.5 19.5t-19.5 51.5z" />
<glyph unicode="&#xb0;" horiz-adv-x="833" d="M53 1204q0 149 107.5 259t255.5 110q147 0 255.5 -109t108.5 -258q0 -150 -109 -262.5t-255 -112.5t-254.5 112.5t-108.5 260.5zM180 1204q0 -95 69.5 -169t166.5 -74t167 73.5t70 167.5t-69.5 168t-167.5 74q-97 0 -166.5 -73t-69.5 -167z" />
<glyph unicode="&#xb1;" horiz-adv-x="960" d="M82 174q0 39 20 65.5t50 26.5h655q28 0 50 -27t22 -65q0 -39 -21.5 -64.5t-50.5 -25.5h-655q-31 0 -50.5 25t-19.5 65zM82 741q0 40 19.5 66.5t50.5 26.5h237v225q0 27 27.5 49t64.5 22q38 0 64 -22t26 -49v-225h236q28 0 50 -27t22 -66q0 -38 -21.5 -63t-50.5 -25h-236 v-227q0 -31 -25 -50.5t-65 -19.5q-39 0 -65.5 20t-26.5 50v227h-237q-31 0 -50.5 24.5t-19.5 63.5z" />
<glyph unicode="&#xb2;" horiz-adv-x="649" d="M57 743v107q0 48 39.5 95t96.5 85t113.5 75.5t96 80t39.5 84.5q0 37 -28.5 64.5t-85.5 27.5q-49 0 -79 -22.5t-30 -69.5q0 -22 -22.5 -39t-57.5 -17q-65 0 -65 78q0 93 74.5 149t177.5 56q109 0 187.5 -61.5t78.5 -161.5q0 -47 -21 -90t-54.5 -75.5t-74.5 -61.5 t-81.5 -53.5t-74 -47t-54.5 -45.5t-21 -45v-29h336q19 0 33 -19.5t14 -45.5q0 -25 -14 -45.5t-33 -20.5h-424q-23 0 -44.5 13.5t-21.5 33.5z" />
<glyph unicode="&#xb3;" horiz-adv-x="663" d="M49 891q0 33 15.5 45t54.5 12q44 0 60 -12t16 -39q0 -35 34.5 -55.5t94.5 -20.5q69 0 101 26.5t32 86.5v20q0 56 -35.5 78.5t-99.5 22.5q-24 0 -36 16.5t-12 40.5q0 56 48 59q54 2 83 22.5t29 82.5q0 51 -27.5 72.5t-80.5 21.5q-111 0 -111 -72q0 -55 -70 -55 q-49 0 -63 12.5t-14 49.5q0 33 13 64.5t41 61t80.5 48t123.5 18.5q249 0 249 -197q0 -64 -25 -113t-69 -69q123 -43 123 -164v-20q0 -126 -78.5 -185t-206.5 -59q-131 0 -200.5 62t-69.5 139z" />
<glyph unicode="&#xb4;" horiz-adv-x="376" d="M0 1266q0 37 31 53l254 129q16 4 22 4q29 0 49.5 -26.5t20.5 -57.5q0 -42 -33 -55l-248 -125q-12 -6 -24 -6q-30 0 -51 26.5t-21 57.5z" />
<glyph unicode="&#xb5;" horiz-adv-x="1040" d="M127 -389v1288q0 28 32.5 50t76.5 22q42 0 74 -22t32 -50v-532q0 -65 65.5 -129t145.5 -64t140.5 66t60.5 147v512q0 30 32 51t76 21q46 0 76.5 -20.5t30.5 -51.5v-512q0 -164 -123 -283.5t-295 -119.5q-68 0 -129.5 27.5t-102.5 70.5v-471q0 -28 -25.5 -50t-60.5 -22 q-45 0 -75.5 21.5t-30.5 50.5z" />
<glyph unicode="&#xb6;" horiz-adv-x="1107" d="M51 1051v24q0 112 30.5 195t86.5 131.5t127 72t158 23.5h446q28 0 50 -19.5t22 -52.5v-1355q0 -34 -21.5 -52t-50.5 -18q-31 0 -52.5 18t-21.5 52v1319h-166v-1317q0 -34 -21 -53t-50 -19q-30 0 -52 19.5t-22 52.5v555h-61q-87 0 -158 23.5t-127 72.5t-86.5 132.5 t-30.5 195.5z" />
<glyph unicode="&#xb7;" horiz-adv-x="403" d="M74 614q0 47 37 81t92 34q52 0 89.5 -34.5t37.5 -80.5t-37.5 -81t-89.5 -35q-54 0 -91.5 34.5t-37.5 81.5z" />
<glyph unicode="&#xb8;" horiz-adv-x="370" d="M0 -381q0 16 11.5 41t29.5 25q4 0 41 -14.5t76 -14.5q51 0 76.5 20t25.5 54q0 68 -110 77l-99 11l53 200h105l-37 -131q99 -3 149 -46t50 -107q0 -30 -11 -58.5t-33.5 -55t-63.5 -42.5t-95 -16q-57 0 -112.5 15t-55.5 42z" />
<glyph unicode="&#xb9;" horiz-adv-x="376" d="M23 1339q0 38 26 54l139 96q13 10 33 10q25 0 45.5 -13t20.5 -34v-709q0 -23 -21.5 -35t-52.5 -12q-32 0 -54 12t-22 35v578l-39 -31q-13 -8 -26 -8q-21 0 -35 17t-14 40z" />
<glyph unicode="&#xba;" horiz-adv-x="694" d="M66 1153v121q0 108 82 188t198 80q115 0 199 -79t84 -189v-121q0 -106 -85 -187t-198 -81t-196.5 80.5t-83.5 187.5zM215 1153q0 -54 38.5 -94.5t92.5 -40.5q53 0 92 41t39 94v121q0 52 -38.5 92.5t-92.5 40.5t-92.5 -40.5t-38.5 -92.5v-121z" />
<glyph unicode="&#xbb;" horiz-adv-x="952" d="M78 260q0 14 6 23l152 284l-152 285q-6 12 -6 25q0 36 39.5 71t89.5 35q49 0 65 -29l162 -303q3 -4 8.5 -13.5t7.5 -13l6 -10.5t5.5 -10.5t4 -9.5t3 -10t1.5 -9t1 -10q0 -8 -1.5 -14.5t-5.5 -15t-7 -14t-10.5 -18t-12.5 -20.5l-162 -301q-15 -30 -63 -30 q-50 0 -90.5 35.5t-40.5 72.5zM500 260q0 14 6 23l153 284l-153 285q-6 12 -6 25q0 36 40.5 71t90.5 35q49 0 65 -29l162 -303q5 -10 13.5 -25.5t12.5 -23t7.5 -17.5t3.5 -20q0 -12 -4 -22.5t-15.5 -29t-17.5 -30.5l-162 -301q-18 -30 -63 -30q-51 0 -92 35.5t-41 72.5z" />
<glyph unicode="&#xbc;" horiz-adv-x="1312" d="M55 1339q0 37 27 54l139 96q13 10 33 10q25 0 45 -13t20 -34v-709q0 -23 -21.5 -35t-51.5 -12q-32 0 -54 12t-22 35v578l-39 -31q-13 -8 -27 -8q-21 0 -35 17t-14 40zM152 4q0 18 8 31l751 1505q16 37 62 37q33 0 59.5 -22t26.5 -56q0 -18 -6 -33l-752 -1499 q-19 -39 -70 -39q-34 0 -56.5 23.5t-22.5 52.5zM678 225q0 16 8 29l285 508q20 39 63 39q23 0 48.5 -16.5t25.5 -39.5q0 -11 -6 -20l-234 -414h150v107q0 23 21.5 35t52.5 12q32 0 53.5 -12t21.5 -35v-107h56q23 0 35 -20t12 -49q0 -25 -14.5 -46.5t-32.5 -21.5h-56v-127 q0 -23 -21.5 -35t-53.5 -12q-31 0 -52.5 12t-21.5 35v127h-289q-22 0 -36.5 13.5t-14.5 37.5z" />
<glyph unicode="&#xbd;" horiz-adv-x="1306" d="M49 1339q0 37 27 54l139 96q13 10 33 10q25 0 45 -13t20 -34v-709q0 -23 -21.5 -35t-51.5 -12q-32 0 -54 12t-22 35v578l-39 -31q-13 -8 -27 -8q-21 0 -35 17t-14 40zM113 4q0 18 8 31l751 1505q16 37 62 37q33 0 59.5 -22t26.5 -56q0 -18 -6 -33l-752 -1499 q-19 -39 -69 -39q-34 0 -57 23.5t-23 52.5zM713 47v107q0 48 39.5 95t96.5 85t113.5 75t96 79.5t39.5 84.5q0 37 -29 65t-86 28q-49 0 -79 -23t-30 -70q0 -22 -22 -38.5t-57 -16.5q-66 0 -66 78q0 93 74.5 149t177.5 56q109 0 187.5 -61.5t78.5 -161.5q0 -64 -39 -120.5 t-95.5 -96t-112.5 -73t-95 -66.5t-39 -62v-29h336q19 0 33 -19.5t14 -45.5q0 -25 -14.5 -45.5t-32.5 -20.5h-424q-23 0 -44 13.5t-21 33.5z" />
<glyph unicode="&#xbe;" horiz-adv-x="1585" d="M59 891q0 33 15.5 45t54.5 12q44 0 60 -12t16 -39q0 -35 34.5 -55.5t94.5 -20.5q69 0 101 26.5t32 86.5v20q0 56 -35.5 78.5t-99.5 22.5q-47 0 -47 57q0 56 47 59q54 2 83 22.5t29 82.5q0 51 -27.5 72.5t-80.5 21.5q-111 0 -111 -72q0 -55 -69 -55q-49 0 -63.5 12.5 t-14.5 49.5q0 33 13 64.5t41 61t80.5 48t123.5 18.5q250 0 250 -197q0 -64 -25 -113t-69 -69q122 -42 122 -164v-20q0 -126 -78 -185t-206 -59q-131 0 -201 62t-70 139zM412 4q0 18 8 31l751 1505q16 37 62 37q33 0 59.5 -22t26.5 -56q0 -18 -6 -33l-752 -1499 q-19 -39 -69 -39q-34 0 -57 23.5t-23 52.5zM950 225q0 16 8 29l285 508q20 39 64 39q23 0 48 -16.5t25 -39.5q0 -11 -6 -20l-233 -414h149v107q0 23 21.5 35t52.5 12q32 0 54 -12t22 -35v-107h55q23 0 35 -20t12 -49q0 -25 -14.5 -46.5t-32.5 -21.5h-55v-127q0 -23 -22 -35 t-54 -12q-31 0 -52.5 12t-21.5 35v127h-289q-22 0 -36.5 13.5t-14.5 37.5z" />
<glyph unicode="&#xbf;" horiz-adv-x="862" d="M55 340q0 64 18.5 122.5t53 106.5t62 79t69.5 69t51 47q61 55 75.5 113t14.5 174q0 63 84 63q43 0 61.5 -20.5t18.5 -73.5q0 -138 -29.5 -211.5t-80.5 -124.5q-15 -15 -64 -58.5t-75.5 -71.5t-52 -81.5t-25.5 -112.5q0 -98 62.5 -152t172.5 -54q54 0 93.5 13t60.5 32 t37 37.5t33 31.5t38 13q31 0 57.5 -23t26.5 -61q0 -73 -99.5 -141t-254.5 -68q-189 0 -298.5 99t-109.5 253zM360 1389q0 50 35 86t86 36q52 0 87.5 -36t35.5 -86q0 -51 -36 -87t-87 -36q-50 0 -85.5 36t-35.5 87z" />
<glyph unicode="&#xc0;" horiz-adv-x="1150" d="M29 90q0 13 2 19l407 1327q11 35 49.5 54t87.5 19t89 -19t51 -54l405 -1327q4 -12 4 -19q0 -36 -44 -63t-93 -27q-60 0 -74 45l-84 291h-505l-84 -291q-14 -45 -76 -45q-48 0 -91.5 26t-43.5 64zM365 1874q0 31 20 57.5t49 26.5q7 0 23 -4l254 -129q30 -16 30 -53 q0 -31 -20.5 -57.5t-48.5 -26.5q-15 0 -27 6l-248 125q-32 14 -32 55zM371 510h409l-205 702z" />
<glyph unicode="&#xc1;" horiz-adv-x="1150" d="M29 90q0 13 2 19l407 1327q11 35 49.5 54t87.5 19t89 -19t51 -54l405 -1327q4 -12 4 -19q0 -36 -44 -63t-93 -27q-60 0 -74 45l-84 291h-505l-84 -291q-14 -45 -76 -45q-48 0 -91.5 26t-43.5 64zM371 510h409l-205 702zM430 1772q0 37 31 53l254 129q16 4 22 4 q29 0 49.5 -26.5t20.5 -57.5q0 -42 -33 -55l-248 -125q-12 -6 -24 -6q-30 0 -51 26.5t-21 57.5z" />
<glyph unicode="&#xc2;" horiz-adv-x="1150" d="M29 90q0 13 2 19l407 1327q11 35 49.5 54t87.5 19t89 -19t51 -54l405 -1327q4 -12 4 -19q0 -36 -44 -63t-93 -27q-60 0 -74 45l-84 291h-505l-84 -291q-14 -45 -76 -45q-48 0 -91.5 26t-43.5 64zM289 1769q0 45 37 64l213 115q20 10 34 10q18 0 35 -10l213 -113 q39 -23 39 -68q0 -27 -15 -48t-38 -21q-3 0 -11 2.5t-10 3.5l-213 115l-213 -115q-9 -6 -18 -6q-23 0 -38 21t-15 50zM371 510h409l-205 702z" />
<glyph unicode="&#xc3;" horiz-adv-x="1150" d="M29 90q0 13 2 19l407 1327q11 35 49.5 54t87.5 19t89 -19t51 -54l405 -1327q4 -12 4 -19q0 -36 -44 -63t-93 -27q-60 0 -74 45l-84 291h-505l-84 -291q-14 -45 -76 -45q-48 0 -91.5 26t-43.5 64zM238 1808q0 37 20 64.5t50 41t57 19.5t51 6q58 0 142.5 -31.5t139.5 -31.5 q50 0 96.5 25.5t61.5 25.5q28 0 42.5 -24.5t14.5 -44.5q0 -40 -19 -68t-49.5 -41t-56 -18t-49.5 -5q-65 0 -149 32t-135 32q-49 0 -97.5 -27.5t-62.5 -27.5q-29 0 -43 24.5t-14 48.5zM371 510h409l-205 702z" />
<glyph unicode="&#xc4;" horiz-adv-x="1150" d="M29 90q0 13 2 19l407 1327q11 35 49.5 54t87.5 19t89 -19t51 -54l405 -1327q4 -12 4 -19q0 -36 -44 -63t-93 -27q-60 0 -74 45l-84 291h-505l-84 -291q-14 -45 -76 -45q-48 0 -91.5 26t-43.5 64zM340 1796q0 39 27.5 66.5t66.5 27.5q38 0 64 -27.5t26 -66.5t-26 -67.5 t-64 -28.5q-39 0 -66.5 28.5t-27.5 67.5zM371 510h409l-205 702zM627 1796q0 38 27 66t65 28t65 -28t27 -66q0 -39 -27 -67.5t-65 -28.5t-65 28.5t-27 67.5z" />
<glyph unicode="&#xc5;" horiz-adv-x="1150" d="M29 90q0 13 2 19l407 1327q11 35 49.5 54t87.5 19t89 -19t51 -54l405 -1327q4 -12 4 -19q0 -36 -44 -63t-93 -27q-60 0 -74 45l-84 291h-505l-84 -291q-14 -45 -76 -45q-48 0 -91.5 26t-43.5 64zM371 510h409l-205 702zM379 1882q0 78 57 138.5t137 60.5 q78 0 138.5 -60.5t60.5 -138.5q0 -80 -60.5 -141.5t-138.5 -61.5q-79 0 -136.5 61.5t-57.5 141.5zM469 1880q0 -41 31.5 -76t74.5 -35q41 0 72 34.5t31 76.5q0 39 -31 70.5t-72 31.5q-43 0 -74.5 -32t-31.5 -70z" />
<glyph unicode="&#xc6;" horiz-adv-x="1558" d="M129 82v958q0 121 34.5 211t97 142.5t142 78t177.5 25.5h866q34 0 53 -28.5t19 -65.5q0 -41 -19.5 -69.5t-52.5 -28.5h-471v-469h264q33 0 52.5 -25.5t19.5 -62.5q0 -33 -19 -58.5t-53 -25.5h-264v-471h471q33 0 52.5 -29t19.5 -70q0 -37 -19 -65.5t-53 -28.5h-592 q-39 0 -67.5 19t-28.5 53v592h-424v-582q0 -40 -21.5 -61t-87.5 -21q-50 0 -73 22.5t-23 59.5zM334 836h424v469h-178q-118 0 -182 -66.5t-64 -198.5v-204z" />
<glyph unicode="&#xc7;" horiz-adv-x="1105" d="M119 444v596q0 121 35.5 211t99 142.5t143.5 78t176 25.5q209 0 337 -103.5t128 -267.5q0 -66 -24.5 -89t-83.5 -23q-106 0 -109 71q-12 220 -239 220q-246 0 -246 -265v-596q0 -264 250 -264q50 0 89 10t63.5 30.5t40.5 41t24.5 51t11.5 50.5t6 49q5 71 107 71 q60 0 85 -23.5t25 -88.5q0 -154 -106.5 -257t-286.5 -122l-29 -105q99 -3 149 -46t50 -107q0 -30 -11 -58.5t-33.5 -55t-63.5 -42.5t-95 -16q-57 0 -112.5 15t-55.5 42q0 16 11.5 41t29.5 25q4 0 41 -14.5t76 -14.5q51 0 77 20t26 54q0 68 -111 77l-98 11l45 172 q-90 4 -164.5 31.5t-133.5 80t-91.5 140t-32.5 202.5z" />
<glyph unicode="&#xc8;" horiz-adv-x="1071" d="M135 72v1353q0 33 29 52.5t67 19.5h730q34 0 52.5 -28t18.5 -66q0 -41 -19 -69.5t-52 -28.5h-609v-469h316q33 0 52 -25.5t19 -62.5q0 -33 -18.5 -58.5t-52.5 -25.5h-316v-471h609q33 0 52 -28.5t19 -70.5q0 -38 -18.5 -66t-52.5 -28h-730q-38 0 -67 19.5t-29 52.5z M387 1874q0 31 20.5 57.5t49.5 26.5q6 0 22 -4l254 -129q31 -16 31 -53q0 -31 -21 -57.5t-49 -26.5q-14 0 -26 6l-248 125q-33 14 -33 55z" />
<glyph unicode="&#xc9;" horiz-adv-x="1071" d="M135 72v1353q0 33 29 52.5t67 19.5h730q34 0 52.5 -28t18.5 -66q0 -41 -19 -69.5t-52 -28.5h-609v-469h316q33 0 52 -25.5t19 -62.5q0 -33 -18.5 -58.5t-52.5 -25.5h-316v-471h609q33 0 52 -28.5t19 -70.5q0 -38 -18.5 -66t-52.5 -28h-730q-38 0 -67 19.5t-29 52.5z M424 1772q0 37 31 53l254 129q16 4 22 4q29 0 49.5 -26.5t20.5 -57.5q0 -42 -33 -55l-248 -125q-12 -6 -24 -6q-30 0 -51 26.5t-21 57.5z" />
<glyph unicode="&#xca;" horiz-adv-x="1071" d="M135 72v1353q0 33 29 52.5t67 19.5h730q34 0 52.5 -28t18.5 -66q0 -41 -19 -69.5t-52 -28.5h-609v-469h316q33 0 52 -25.5t19 -62.5q0 -33 -18.5 -58.5t-52.5 -25.5h-316v-471h609q33 0 52 -28.5t19 -70.5q0 -38 -18.5 -66t-52.5 -28h-730q-38 0 -67 19.5t-29 52.5z M309 1769q0 45 37 64l213 115q20 10 35 10q18 0 35 -10l213 -113q39 -23 39 -68q0 -27 -15.5 -48t-38.5 -21q-3 0 -10 2.5t-10 3.5l-213 115l-213 -115q-9 -6 -19 -6q-23 0 -38 21t-15 50z" />
<glyph unicode="&#xcb;" horiz-adv-x="1071" d="M135 72v1353q0 33 29 52.5t67 19.5h730q34 0 52.5 -28t18.5 -66q0 -41 -19 -69.5t-52 -28.5h-609v-469h316q33 0 52 -25.5t19 -62.5q0 -33 -18.5 -58.5t-52.5 -25.5h-316v-471h609q33 0 52 -28.5t19 -70.5q0 -38 -18.5 -66t-52.5 -28h-730q-38 0 -67 19.5t-29 52.5z M350 1796q0 39 27.5 66.5t66.5 27.5q38 0 64.5 -27.5t26.5 -66.5t-26.5 -67.5t-64.5 -28.5q-39 0 -66.5 28.5t-27.5 67.5zM637 1796q0 38 27 66t65 28t65 -28t27 -66q0 -39 -27 -67.5t-65 -28.5t-65 28.5t-27 67.5z" />
<glyph unicode="&#xcc;" horiz-adv-x="487" d="M45 1874q0 31 20.5 57.5t49.5 26.5q6 0 22 -4l254 -129q31 -16 31 -53q0 -31 -21 -57.5t-49 -26.5q-14 0 -26 6l-248 125q-33 14 -33 55zM135 72v1355q0 34 32.5 52t76.5 18q45 0 76.5 -17.5t31.5 -52.5v-1355q0 -34 -32 -53t-76 -19q-43 0 -76 19.5t-33 52.5z" />
<glyph unicode="&#xcd;" horiz-adv-x="487" d="M66 1772q0 37 30 53l254 129q16 4 23 4q29 0 49 -26.5t20 -57.5q0 -42 -32 -55l-248 -125q-12 -6 -25 -6q-29 0 -50 26.5t-21 57.5zM135 72v1355q0 34 32.5 52t76.5 18q45 0 76.5 -17.5t31.5 -52.5v-1355q0 -34 -32 -53t-76 -19q-43 0 -76 19.5t-33 52.5z" />
<glyph unicode="&#xce;" horiz-adv-x="487" d="M-39 1769q0 45 37 64l213 115q20 10 35 10q18 0 35 -10l213 -113q38 -23 38 -68q0 -27 -15 -48t-38 -21q-3 0 -10 2.5t-10 3.5l-213 115l-213 -115q-9 -6 -19 -6q-23 0 -38 21t-15 50zM135 72v1355q0 34 32.5 52t76.5 18q45 0 76.5 -17.5t31.5 -52.5v-1355q0 -34 -32 -53 t-76 -19q-43 0 -76 19.5t-33 52.5z" />
<glyph unicode="&#xcf;" horiz-adv-x="487" d="M10 1796q0 39 27.5 66.5t66.5 27.5q38 0 64.5 -27.5t26.5 -66.5t-26.5 -67.5t-64.5 -28.5q-39 0 -66.5 28.5t-27.5 67.5zM135 72v1355q0 34 32.5 52t76.5 18q45 0 76.5 -17.5t31.5 -52.5v-1355q0 -34 -32 -53t-76 -19q-43 0 -76 19.5t-33 52.5zM297 1796q0 38 27 66 t65 28t65 -28t27 -66q0 -39 -27 -67.5t-65 -28.5t-65 28.5t-27 67.5z" />
<glyph unicode="&#xd0;" horiz-adv-x="1189" d="M-8 784q0 32 16 56t43 24h101v563q0 29 27 49.5t69 20.5h362q101 0 182.5 -25.5t145 -78t98.5 -142.5t35 -211v-583q0 -121 -35 -211t-98.5 -142.5t-145 -78t-182.5 -25.5h-362q-42 0 -69 20.5t-27 49.5v635h-101q-27 0 -43 23t-16 56zM369 193h241q118 0 181 65.5 t63 198.5v583q0 133 -63 199t-181 66h-241v-441h186q28 0 44.5 -23.5t16.5 -56.5q0 -34 -16.5 -56.5t-44.5 -22.5h-186v-512z" />
<glyph unicode="&#xd1;" horiz-adv-x="1214" d="M135 72v1353q0 36 31.5 54t77.5 18q58 0 92.5 -26t71.5 -97l454 -887v940q0 34 32.5 52t76.5 18q45 0 76.5 -17.5t31.5 -52.5v-1355q0 -34 -32 -53t-76 -19q-85 0 -129 80l-490 932v-940q0 -34 -32 -53t-76 -19q-43 0 -76 19.5t-33 52.5zM258 1808q0 37 20 64.5t50 41 t57 19.5t51 6q58 0 143 -31.5t140 -31.5q50 0 96.5 25.5t61.5 25.5q28 0 42.5 -24.5t14.5 -44.5q0 -40 -19 -68t-49.5 -41t-56 -18t-49.5 -5q-65 0 -149.5 32t-135.5 32q-49 0 -97.5 -27.5t-62.5 -27.5q-29 0 -43 24.5t-14 48.5z" />
<glyph unicode="&#xd2;" d="M121 444v596q0 121 34.5 211t98 142.5t144.5 78t182 25.5q100 0 181.5 -25.5t145 -78t98.5 -142.5t35 -211v-596q0 -121 -35 -210.5t-99 -142.5t-145 -78t-181 -25q-101 0 -182 25t-144.5 78t-98 142.5t-34.5 210.5zM338 444q0 -133 62 -198.5t180 -65.5q117 0 180 66 t63 198v596q0 132 -63.5 198.5t-179.5 66.5q-117 0 -179.5 -66t-62.5 -199v-596zM373 1874q0 31 20 57.5t49 26.5q7 0 23 -4l254 -129q31 -16 31 -53q0 -31 -21 -57.5t-49 -26.5q-15 0 -27 6l-247 125q-33 14 -33 55z" />
<glyph unicode="&#xd3;" d="M121 444v596q0 121 34.5 211t98 142.5t144.5 78t182 25.5q100 0 181.5 -25.5t145 -78t98.5 -142.5t35 -211v-596q0 -121 -35 -210.5t-99 -142.5t-145 -78t-181 -25q-101 0 -182 25t-144.5 78t-98 142.5t-34.5 210.5zM338 444q0 -133 62 -198.5t180 -65.5q117 0 180 66 t63 198v596q0 132 -63.5 198.5t-179.5 66.5q-117 0 -179.5 -66t-62.5 -199v-596zM444 1772q0 37 31 53l254 129q16 4 23 4q29 0 49 -26.5t20 -57.5q0 -42 -33 -55l-247 -125q-12 -6 -25 -6q-30 0 -51 26.5t-21 57.5z" />
<glyph unicode="&#xd4;" d="M121 444v596q0 121 34.5 211t98 142.5t144.5 78t182 25.5q100 0 181.5 -25.5t145 -78t98.5 -142.5t35 -211v-596q0 -121 -35 -210.5t-99 -142.5t-145 -78t-181 -25q-101 0 -182 25t-144.5 78t-98 142.5t-34.5 210.5zM293 1769q0 45 37 64l213 115q20 10 35 10 q17 0 34 -10l213 -113q39 -23 39 -68q0 -27 -15 -48t-38 -21q-3 0 -10 2.5t-10 3.5l-213 115l-213 -115q-9 -6 -19 -6q-23 0 -38 21t-15 50zM338 444q0 -133 62 -198.5t180 -65.5q117 0 180 66t63 198v596q0 132 -63.5 198.5t-179.5 66.5q-117 0 -179.5 -66t-62.5 -199v-596 z" />
<glyph unicode="&#xd5;" d="M121 444v596q0 121 34.5 211t98 142.5t144.5 78t182 25.5q100 0 181.5 -25.5t145 -78t98.5 -142.5t35 -211v-596q0 -121 -35 -210.5t-99 -142.5t-145 -78t-181 -25q-101 0 -182 25t-144.5 78t-98 142.5t-34.5 210.5zM242 1808q0 37 20 64.5t50 41t57 19.5t51 6 q58 0 142.5 -31.5t139.5 -31.5q50 0 96.5 25.5t61.5 25.5q28 0 43 -24.5t15 -44.5q0 -40 -19.5 -68t-50 -41t-56 -18t-49.5 -5q-65 0 -149 32t-135 32q-49 0 -97.5 -27.5t-62.5 -27.5q-29 0 -43 24.5t-14 48.5zM338 444q0 -133 62 -198.5t180 -65.5q117 0 180 66t63 198v596 q0 132 -63.5 198.5t-179.5 66.5q-117 0 -179.5 -66t-62.5 -199v-596z" />
<glyph unicode="&#xd6;" d="M121 444v596q0 121 34.5 211t98 142.5t144.5 78t182 25.5q100 0 181.5 -25.5t145 -78t98.5 -142.5t35 -211v-596q0 -121 -35 -210.5t-99 -142.5t-145 -78t-181 -25q-101 0 -182 25t-144.5 78t-98 142.5t-34.5 210.5zM338 444q0 -133 62 -198.5t180 -65.5q117 0 180 66 t63 198v596q0 132 -63.5 198.5t-179.5 66.5q-117 0 -179.5 -66t-62.5 -199v-596zM346 1796q0 39 27.5 66.5t66.5 27.5q38 0 64 -27.5t26 -66.5t-26 -67.5t-64 -28.5q-39 0 -66.5 28.5t-27.5 67.5zM633 1796q0 38 27 66t65 28t65 -28t27 -66q0 -39 -27 -67.5t-65 -28.5 t-65 28.5t-27 67.5z" />
<glyph unicode="&#xd7;" horiz-adv-x="825" d="M98 350q0 23 19 45l180 168l-178 166q-19 19 -19 47q0 37 31.5 69t69.5 32q26 0 45 -19l166 -168l168 168q19 19 45 19q38 0 69 -32t31 -69q0 -28 -16 -47l-181 -166l181 -168q20 -20 20 -47q0 -35 -32.5 -67.5t-69.5 -32.5q-27 0 -45 18l-170 170l-168 -170 q-18 -18 -45 -18q-34 0 -67.5 33t-33.5 69z" />
<glyph unicode="&#xd8;" d="M121 444v596q0 121 34.5 211t98 142.5t144.5 78t182 25.5q154 0 260 -59l51 102q16 37 61 37q33 0 59.5 -22t26.5 -56q0 -20 -8 -33l-67 -135q77 -113 77 -291v-596q0 -121 -35 -210.5t-99 -142.5t-145 -78t-181 -25q-155 0 -263 57l-38 -78q-19 -39 -68 -39 q-34 0 -57 23.5t-23 52.5q0 16 6 31l60 119q-76 116 -76 290zM338 434l407 817q-63 54 -165 54q-117 0 -179.5 -66t-62.5 -199v-606zM412 233q59 -53 168 -53q117 0 180 66t63 198v609z" />
<glyph unicode="&#xd9;" horiz-adv-x="1193" d="M129 444v983q0 34 32 52t77 18q44 0 76 -18t32 -52v-983q0 -132 65 -198t185 -66q121 0 186.5 66t65.5 198v983q0 35 31.5 52.5t76.5 17.5q44 0 76.5 -18t32.5 -52v-983q0 -121 -35.5 -210.5t-100.5 -142.5t-148 -78t-185 -25t-184.5 25t-147 78t-100 142.5t-35.5 210.5z M381 1874q0 31 20.5 57.5t49.5 26.5q6 0 22 -4l254 -129q31 -16 31 -53q0 -31 -21 -57.5t-49 -26.5q-14 0 -26 6l-248 125q-33 14 -33 55z" />
<glyph unicode="&#xda;" horiz-adv-x="1193" d="M129 444v983q0 34 32 52t77 18q44 0 76 -18t32 -52v-983q0 -132 65 -198t185 -66q121 0 186.5 66t65.5 198v983q0 35 31.5 52.5t76.5 17.5q44 0 76.5 -18t32.5 -52v-983q0 -121 -35.5 -210.5t-100.5 -142.5t-148 -78t-185 -25t-184.5 25t-147 78t-100 142.5t-35.5 210.5z M442 1772q0 37 31 53l254 129q16 4 23 4q29 0 49 -26.5t20 -57.5q0 -42 -33 -55l-247 -125q-12 -6 -25 -6q-30 0 -51 26.5t-21 57.5z" />
<glyph unicode="&#xdb;" horiz-adv-x="1193" d="M129 444v983q0 34 32 52t77 18q44 0 76 -18t32 -52v-983q0 -132 65 -198t185 -66q121 0 186.5 66t65.5 198v983q0 35 31.5 52.5t76.5 17.5q44 0 76.5 -18t32.5 -52v-983q0 -121 -35.5 -210.5t-100.5 -142.5t-148 -78t-185 -25t-184.5 25t-147 78t-100 142.5t-35.5 210.5z M303 1769q0 45 37 64l213 115q20 10 35 10q18 0 35 -10l213 -113q38 -23 38 -68q0 -27 -15 -48t-38 -21q-3 0 -10 2.5t-10 3.5l-213 115l-213 -115q-9 -6 -19 -6q-23 0 -38 21t-15 50z" />
<glyph unicode="&#xdc;" horiz-adv-x="1193" d="M129 444v983q0 34 32 52t77 18q44 0 76 -18t32 -52v-983q0 -132 65 -198t185 -66q121 0 186.5 66t65.5 198v983q0 35 31.5 52.5t76.5 17.5q44 0 76.5 -18t32.5 -52v-983q0 -121 -35.5 -210.5t-100.5 -142.5t-148 -78t-185 -25t-184.5 25t-147 78t-100 142.5t-35.5 210.5z M360 1796q0 38 28 66t67 28q38 0 64 -27.5t26 -66.5t-26 -67.5t-64 -28.5q-39 0 -67 28.5t-28 67.5zM647 1796q0 38 27 66t65 28t65 -28t27 -66q0 -39 -27 -67.5t-65 -28.5t-65 28.5t-27 67.5z" />
<glyph unicode="&#xdd;" horiz-adv-x="1142" d="M27 1407q0 37 45 63.5t92 26.5q45 0 72 -49l337 -649l336 649q24 49 72 49q47 0 91 -26.5t44 -63.5q0 -19 -6 -31l-424 -764q-4 -12 -4 -22v-518q0 -33 -33 -52.5t-76 -19.5q-44 0 -76 19t-32 53v518q0 4 -6 22l-424 764q-8 16 -8 31zM408 1772q0 37 30 53l254 129 q16 4 23 4q29 0 49 -26.5t20 -57.5q0 -42 -32 -55l-248 -125q-12 -6 -25 -6q-29 0 -50 26.5t-21 57.5z" />
<glyph unicode="&#xde;" horiz-adv-x="1046" d="M135 72v1376q0 31 30.5 50.5t74.5 19.5q49 0 79.5 -20t30.5 -52v-330q37 67 108 111.5t165 44.5q149 0 254.5 -106.5t105.5 -268.5v-248q0 -78 -30 -149.5t-78.5 -121t-112 -79t-129.5 -29.5q-92 0 -172.5 47.5t-110.5 114.5v-360q0 -27 -32 -49.5t-76 -22.5t-75.5 22.5 t-31.5 49.5zM350 635q0 -57 63.5 -114.5t151.5 -57.5q80 0 141.5 52.5t61.5 133.5v248q0 80 -61.5 132t-145.5 52q-85 0 -148 -51t-63 -133v-262z" />
<glyph unicode="&#xdf;" horiz-adv-x="1189" d="M8 891q0 33 16 56.5t44 23.5h127v203q0 83 21 153t64.5 126t118.5 88t174 32q169 0 275 -95t106 -280q0 -110 -37.5 -205t-103.5 -127q117 -22 214 -139t97 -274v-31q0 -111 -34.5 -201t-93.5 -146t-134.5 -86t-159.5 -30q-208 0 -208 111q0 36 15 69t40 33q8 0 55 -15.5 t92 -15.5q102 0 160.5 69.5t58.5 195.5v30q0 133 -70.5 214.5t-201.5 103.5q-40 7 -58 24t-18 64q0 24 4.5 39t17.5 23.5t23 11.5t33 8q129 18 129 223q0 109 -45.5 172t-140.5 63t-136.5 -59t-41.5 -149v-1104q0 -30 -33 -50t-78 -20t-74.5 19.5t-29.5 50.5v741h-127 q-28 0 -44 23t-16 57z" />
<glyph unicode="&#xe0;" horiz-adv-x="942" d="M51 254q0 84 34 142.5t100 91t149 46t196 13.5h91v37q0 56 -18.5 104t-66 82.5t-118.5 34.5q-51 0 -92.5 -9.5t-62.5 -21.5t-40.5 -21.5t-32.5 -9.5q-36 0 -56.5 34t-20.5 75q0 53 99.5 92t209.5 39q109 0 191 -32.5t129.5 -89.5t70.5 -126t23 -149v-514q0 -30 -30.5 -51 t-74.5 -21q-41 0 -69.5 21.5t-28.5 50.5v71q-136 -159 -309 -159q-119 0 -196 69t-77 201zM260 1368q0 31 20.5 57.5t49.5 26.5q6 0 22 -4l254 -129q31 -16 31 -53q0 -31 -21 -57.5t-49 -26.5q-14 0 -26 6l-248 125q-33 14 -33 55zM268 281q0 -66 36.5 -100t96.5 -34 q77 0 148.5 66t71.5 139v76h-52q-53 0 -92 -2.5t-80.5 -11.5t-68 -24.5t-43.5 -43t-17 -65.5z" />
<glyph unicode="&#xe1;" horiz-adv-x="942" d="M51 254q0 84 34 142.5t100 91t149 46t196 13.5h91v37q0 56 -18.5 104t-66 82.5t-118.5 34.5q-51 0 -92.5 -9.5t-62.5 -21.5t-40.5 -21.5t-32.5 -9.5q-36 0 -56.5 34t-20.5 75q0 53 99.5 92t209.5 39q109 0 191 -32.5t129.5 -89.5t70.5 -126t23 -149v-514q0 -30 -30.5 -51 t-74.5 -21q-41 0 -69.5 21.5t-28.5 50.5v71q-136 -159 -309 -159q-119 0 -196 69t-77 201zM268 281q0 -66 36.5 -100t96.5 -34q77 0 148.5 66t71.5 139v76h-52q-53 0 -92 -2.5t-80.5 -11.5t-68 -24.5t-43.5 -43t-17 -65.5zM285 1266q0 37 30 53l254 129q16 4 23 4 q29 0 49.5 -26.5t20.5 -57.5q0 -42 -33 -55l-248 -125q-12 -6 -25 -6q-29 0 -50 26.5t-21 57.5z" />
<glyph unicode="&#xe2;" horiz-adv-x="942" d="M51 254q0 84 34 142.5t100 91t149 46t196 13.5h91v37q0 56 -18.5 104t-66 82.5t-118.5 34.5q-51 0 -92.5 -9.5t-62.5 -21.5t-40.5 -21.5t-32.5 -9.5q-36 0 -56.5 34t-20.5 75q0 53 99.5 92t209.5 39q109 0 191 -32.5t129.5 -89.5t70.5 -126t23 -149v-514q0 -30 -30.5 -51 t-74.5 -21q-41 0 -69.5 21.5t-28.5 50.5v71q-136 -159 -309 -159q-119 0 -196 69t-77 201zM156 1264q0 44 37 63l213 115q20 10 34 10q18 0 35 -10l213 -113q39 -23 39 -67q0 -27 -15.5 -48.5t-37.5 -21.5q-3 0 -10.5 2.5l-10.5 3.5l-213 115l-213 -115q-9 -6 -18 -6 q-23 0 -38 21.5t-15 50.5zM268 281q0 -66 36.5 -100t96.5 -34q77 0 148.5 66t71.5 139v76h-52q-53 0 -92 -2.5t-80.5 -11.5t-68 -24.5t-43.5 -43t-17 -65.5z" />
<glyph unicode="&#xe3;" horiz-adv-x="942" d="M51 254q0 84 34 142.5t100 91t149 46t196 13.5h91v37q0 56 -18.5 104t-66 82.5t-118.5 34.5q-51 0 -92.5 -9.5t-62.5 -21.5t-40.5 -21.5t-32.5 -9.5q-36 0 -56.5 34t-20.5 75q0 53 99.5 92t209.5 39q109 0 191 -32.5t129.5 -89.5t70.5 -126t23 -149v-514q0 -30 -30.5 -51 t-74.5 -21q-41 0 -69.5 21.5t-28.5 50.5v71q-136 -159 -309 -159q-119 0 -196 69t-77 201zM111 1303q0 37 20 64.5t50 41t57 19.5t51 6q58 0 142.5 -32t139.5 -32q50 0 96.5 25.5t61.5 25.5q28 0 42.5 -24.5t14.5 -44.5q0 -32 -13.5 -57t-33 -38.5t-44.5 -22t-45 -11 t-38 -2.5q-65 0 -149 31.5t-135 31.5q-49 0 -97.5 -27.5t-62.5 -27.5q-29 0 -43 25t-14 49zM268 281q0 -66 36.5 -100t96.5 -34q77 0 148.5 66t71.5 139v76h-52q-53 0 -92 -2.5t-80.5 -11.5t-68 -24.5t-43.5 -43t-17 -65.5z" />
<glyph unicode="&#xe4;" horiz-adv-x="942" d="M51 254q0 84 34 142.5t100 91t149 46t196 13.5h91v37q0 56 -18.5 104t-66 82.5t-118.5 34.5q-51 0 -92.5 -9.5t-62.5 -21.5t-40.5 -21.5t-32.5 -9.5q-36 0 -56.5 34t-20.5 75q0 53 99.5 92t209.5 39q109 0 191 -32.5t129.5 -89.5t70.5 -126t23 -149v-514q0 -30 -30.5 -51 t-74.5 -21q-41 0 -69.5 21.5t-28.5 50.5v71q-136 -159 -309 -159q-119 0 -196 69t-77 201zM211 1290q0 39 27.5 66.5t66.5 27.5q38 0 64 -27.5t26 -66.5t-26 -67.5t-64 -28.5q-39 0 -66.5 28.5t-27.5 67.5zM268 281q0 -66 36.5 -100t96.5 -34q77 0 148.5 66t71.5 139v76h-52 q-53 0 -92 -2.5t-80.5 -11.5t-68 -24.5t-43.5 -43t-17 -65.5zM498 1290q0 38 27 66t65 28t65 -28t27 -66q0 -39 -27 -67.5t-65 -28.5t-65 28.5t-27 67.5z" />
<glyph unicode="&#xe5;" horiz-adv-x="942" d="M51 254q0 84 34 142.5t100 91t149 46t196 13.5h91v37q0 56 -18.5 104t-66 82.5t-118.5 34.5q-51 0 -92.5 -9.5t-62.5 -21.5t-40.5 -21.5t-32.5 -9.5q-36 0 -56.5 34t-20.5 75q0 53 99.5 92t209.5 39q109 0 191 -32.5t129.5 -89.5t70.5 -126t23 -149v-514q0 -30 -30.5 -51 t-74.5 -21q-41 0 -69.5 21.5t-28.5 50.5v71q-136 -159 -309 -159q-119 0 -196 69t-77 201zM254 1376q0 78 57.5 138.5t137.5 60.5q78 0 138 -60.5t60 -138.5q0 -80 -60 -141t-138 -61q-79 0 -137 61t-58 141zM268 281q0 -66 36.5 -100t96.5 -34q77 0 148.5 66t71.5 139v76 h-52q-53 0 -92 -2.5t-80.5 -11.5t-68 -24.5t-43.5 -43t-17 -65.5zM344 1374q0 -41 32 -75.5t75 -34.5q41 0 71.5 34t30.5 76q0 39 -30.5 71t-71.5 32q-43 0 -75 -32.5t-32 -70.5z" />
<glyph unicode="&#xe6;" horiz-adv-x="1515" d="M51 254q0 84 33.5 142.5t99 91t148.5 46t196 13.5h90v37q0 42 -10.5 80t-33 71t-64 52.5t-96.5 19.5q-63 0 -110.5 -16t-75 -32t-42.5 -16q-33 0 -54 35.5t-21 75.5q0 34 48.5 65t119.5 48.5t141 17.5q216 0 317 -172q56 78 137 124t173 46q77 0 148.5 -25.5t130 -73 t93.5 -123.5t35 -169q0 -55 -12 -89t-39 -49.5t-56.5 -20.5t-78.5 -5h-430v-47q0 -102 72.5 -162.5t189.5 -60.5q49 0 92 12t67.5 27t50 27t42.5 12q34 0 59 -32.5t25 -64.5q0 -35 -47 -71t-130 -60t-174 -24q-118 0 -216 52.5t-158 147.5q-67 -96 -162.5 -148t-192.5 -52 q-130 0 -217.5 69.5t-87.5 200.5zM268 279q0 -64 37 -98t96 -34q81 0 149 66t68 139v76h-51q-69 0 -116 -5t-92 -19.5t-68 -45.5t-23 -79zM838 561h338q45 0 60 12.5t15 47.5q0 85 -59.5 141.5t-147.5 56.5q-86 0 -146 -54t-60 -136v-68z" />
<glyph unicode="&#xe7;" horiz-adv-x="870" d="M78 391v184q0 182 107 295t317 113q134 0 223.5 -46t89.5 -103q0 -35 -25 -70t-61 -35q-15 0 -41.5 16t-69.5 32t-100 16q-113 0 -169 -57t-56 -161v-184q0 -217 227 -217q59 0 102 17t69.5 34t43.5 17q40 0 66 -33.5t26 -69.5q0 -52 -79.5 -98t-198.5 -55l-27 -99 q99 -3 149 -46t50 -107q0 -30 -11 -58.5t-33.5 -55t-63.5 -42.5t-95 -16q-57 0 -112.5 15t-55.5 42q0 16 11.5 41t29.5 25q4 0 41 -14.5t76 -14.5q51 0 76.5 20t25.5 54q0 68 -110 77l-99 11l45 168q-185 14 -276.5 123.5t-91.5 281.5z" />
<glyph unicode="&#xe8;" horiz-adv-x="970" d="M76 391v195q0 162 125 279.5t301 117.5q168 0 287.5 -107.5t119.5 -271.5q0 -49 -11.5 -83.5t-27 -52t-43 -27t-49 -11.5t-55.5 -2h-432v-47q0 -102 73.5 -162.5t192.5 -60.5q49 0 92 12t67 27t49 27t42 12q35 0 59.5 -32.5t24.5 -64.5q0 -52 -98 -103.5t-242 -51.5 q-210 0 -342.5 112.5t-132.5 294.5zM291 561h340q44 0 60 12.5t16 49.5q0 82 -60 139t-147 57t-148 -54.5t-61 -137.5v-66zM291 1368q0 31 20 57.5t49 26.5q7 0 23 -4l254 -129q31 -16 31 -53q0 -31 -21 -57.5t-49 -26.5q-15 0 -27 6l-247 125q-33 14 -33 55z" />
<glyph unicode="&#xe9;" horiz-adv-x="970" d="M76 391v195q0 162 125 279.5t301 117.5q168 0 287.5 -107.5t119.5 -271.5q0 -49 -11.5 -83.5t-27 -52t-43 -27t-49 -11.5t-55.5 -2h-432v-47q0 -102 73.5 -162.5t192.5 -60.5q49 0 92 12t67 27t49 27t42 12q35 0 59.5 -32.5t24.5 -64.5q0 -52 -98 -103.5t-242 -51.5 q-210 0 -342.5 112.5t-132.5 294.5zM291 561h340q44 0 60 12.5t16 49.5q0 82 -60 139t-147 57t-148 -54.5t-61 -137.5v-66zM315 1266q0 37 31 53l254 129q16 4 23 4q29 0 49 -26.5t20 -57.5q0 -42 -33 -55l-247 -125q-12 -6 -25 -6q-30 0 -51 26.5t-21 57.5z" />
<glyph unicode="&#xea;" horiz-adv-x="970" d="M76 391v195q0 162 125 279.5t301 117.5q168 0 287.5 -107.5t119.5 -271.5q0 -49 -11.5 -83.5t-27 -52t-43 -27t-49 -11.5t-55.5 -2h-432v-47q0 -102 73.5 -162.5t192.5 -60.5q49 0 92 12t67 27t49 27t42 12q35 0 59.5 -32.5t24.5 -64.5q0 -52 -98 -103.5t-242 -51.5 q-210 0 -342.5 112.5t-132.5 294.5zM213 1264q0 44 37 63l213 115q20 10 35 10q17 0 34 -10l213 -113q39 -23 39 -67q0 -27 -15 -48.5t-38 -21.5q-3 0 -10 2.5t-10 3.5l-213 115l-213 -115q-9 -6 -19 -6q-23 0 -38 21.5t-15 50.5zM291 561h340q44 0 60 12.5t16 49.5 q0 82 -60 139t-147 57t-148 -54.5t-61 -137.5v-66z" />
<glyph unicode="&#xeb;" horiz-adv-x="970" d="M76 391v195q0 162 125 279.5t301 117.5q168 0 287.5 -107.5t119.5 -271.5q0 -49 -11.5 -83.5t-27 -52t-43 -27t-49 -11.5t-55.5 -2h-432v-47q0 -102 73.5 -162.5t192.5 -60.5q49 0 92 12t67 27t49 27t42 12q35 0 59.5 -32.5t24.5 -64.5q0 -52 -98 -103.5t-242 -51.5 q-210 0 -342.5 112.5t-132.5 294.5zM262 1290q0 39 27.5 66.5t66.5 27.5q38 0 64 -27.5t26 -66.5t-26 -67.5t-64 -28.5q-39 0 -66.5 28.5t-27.5 67.5zM291 561h340q44 0 60 12.5t16 49.5q0 82 -60 139t-147 57t-148 -54.5t-61 -137.5v-66zM549 1290q0 38 27 66t65 28t65 -28 t27 -66q0 -39 -27 -67.5t-65 -28.5t-65 28.5t-27 67.5z" />
<glyph unicode="&#xec;" horiz-adv-x="440" d="M8 1368q0 31 20.5 57.5t49.5 26.5q6 0 22 -4l254 -129q31 -16 31 -53q0 -31 -21 -57.5t-49 -26.5q-14 0 -26 6l-248 125q-33 14 -33 55zM113 72v829q0 31 30 50.5t76 19.5t77.5 -20t31.5 -50v-829q0 -27 -32.5 -49.5t-76.5 -22.5t-75 22.5t-31 49.5z" />
<glyph unicode="&#xed;" horiz-adv-x="440" d="M57 1266q0 37 31 53l254 129q16 4 23 4q29 0 49 -26.5t20 -57.5q0 -42 -33 -55l-247 -125q-12 -6 -25 -6q-30 0 -51 26.5t-21 57.5zM113 72v829q0 31 30 50.5t76 19.5t77.5 -20t31.5 -50v-829q0 -27 -32.5 -49.5t-76.5 -22.5t-75 22.5t-31 49.5z" />
<glyph unicode="&#xee;" horiz-adv-x="440" d="M-63 1264q0 44 36 63l213 115q20 10 35 10q18 0 35 -10l213 -113q39 -23 39 -67q0 -27 -15 -48.5t-38 -21.5q-3 0 -10.5 2.5l-10.5 3.5l-213 115l-213 -115q-9 -6 -18 -6q-23 0 -38 21.5t-15 50.5zM113 72v829q0 31 30 50.5t76 19.5t77.5 -20t31.5 -50v-829 q0 -27 -32.5 -49.5t-76.5 -22.5t-75 22.5t-31 49.5z" />
<glyph unicode="&#xef;" horiz-adv-x="440" d="M-10 1290q0 39 27.5 66.5t66.5 27.5q38 0 64 -27.5t26 -66.5t-26 -67.5t-64 -28.5q-39 0 -66.5 28.5t-27.5 67.5zM113 72v829q0 31 30 50.5t76 19.5t77.5 -20t31.5 -50v-829q0 -27 -32.5 -49.5t-76.5 -22.5t-75 22.5t-31 49.5zM276 1290q0 38 27.5 66t65.5 28t65 -28 t27 -66q0 -39 -27 -67.5t-65 -28.5t-65.5 28.5t-27.5 67.5z" />
<glyph unicode="&#xf0;" horiz-adv-x="1028" d="M76 391v189q0 165 106 284t256 119q90 0 167 -46.5t106 -117.5q-11 206 -113 365l-131 -78q-11 -8 -25 -8q-29 0 -53 29t-24 61q0 31 26 45l117 70q-55 58 -127 65q-47 30 -47 76q0 39 26.5 72.5t83.5 33.5q133 0 250 -135l127 74q12 6 25 6q29 0 53.5 -27.5t24.5 -58.5 q0 -27 -27 -47l-121 -72q70 -120 110 -270t40 -299v-330q0 -106 -58 -200t-156.5 -150.5t-209.5 -56.5q-112 0 -211 56.5t-157 150.5t-58 200zM291 391q0 -85 62.5 -151t148.5 -66q85 0 147 66t62 151v193q0 86 -64 147.5t-149 61.5t-146 -65.5t-61 -147.5v-189z" />
<glyph unicode="&#xf1;" horiz-adv-x="1050" d="M113 72v829q0 31 29.5 50.5t76.5 19.5q40 0 68 -20t28 -50v-74q34 66 106 111t169 45q145 0 250.5 -119t105.5 -284v-508q0 -34 -32 -53t-76 -19q-41 0 -74 19.5t-33 52.5v508q0 82 -61.5 147.5t-145.5 65.5q-78 0 -137 -59t-59 -154v-508q0 -27 -33.5 -49.5t-75.5 -22.5 q-45 0 -75.5 22t-30.5 50zM184 1303q0 37 20 64.5t50 41t57 19.5t51 6q58 0 143 -32t140 -32q50 0 96.5 25.5t61.5 25.5q28 0 42.5 -24.5t14.5 -44.5q0 -32 -13.5 -57t-33 -38.5t-44.5 -22t-45 -11t-38 -2.5q-65 0 -149.5 31.5t-135.5 31.5q-49 0 -97 -27.5t-62 -27.5 q-29 0 -43.5 25t-14.5 49z" />
<glyph unicode="&#xf2;" horiz-adv-x="997" d="M74 391v189q0 162 125 282.5t299 120.5q111 0 209 -54t156.5 -147.5t58.5 -201.5v-189q0 -160 -128 -283.5t-296 -123.5q-111 0 -209.5 56.5t-156.5 150.5t-58 200zM289 391q0 -85 61.5 -151t147.5 -66q85 0 147 66t62 151v189q0 81 -62.5 147t-146.5 66 q-86 0 -147.5 -65.5t-61.5 -147.5v-189zM291 1368q0 31 20 57.5t49 26.5q7 0 23 -4l254 -129q31 -16 31 -53q0 -31 -21 -57.5t-49 -26.5q-15 0 -27 6l-247 125q-33 14 -33 55z" />
<glyph unicode="&#xf3;" horiz-adv-x="997" d="M74 391v189q0 162 125 282.5t299 120.5q111 0 209 -54t156.5 -147.5t58.5 -201.5v-189q0 -160 -128 -283.5t-296 -123.5q-111 0 -209.5 56.5t-156.5 150.5t-58 200zM289 391q0 -85 61.5 -151t147.5 -66q85 0 147 66t62 151v189q0 81 -62.5 147t-146.5 66 q-86 0 -147.5 -65.5t-61.5 -147.5v-189zM313 1266q0 37 31 53l254 129q16 4 23 4q29 0 49 -26.5t20 -57.5q0 -42 -33 -55l-247 -125q-12 -6 -25 -6q-30 0 -51 26.5t-21 57.5z" />
<glyph unicode="&#xf4;" horiz-adv-x="997" d="M74 391v189q0 162 125 282.5t299 120.5q111 0 209 -54t156.5 -147.5t58.5 -201.5v-189q0 -160 -128 -283.5t-296 -123.5q-111 0 -209.5 56.5t-156.5 150.5t-58 200zM211 1264q0 44 37 63l213 115q20 10 35 10q17 0 34 -10l213 -113q39 -23 39 -67q0 -27 -15 -48.5 t-38 -21.5q-3 0 -10 2.5t-10 3.5l-213 115l-213 -115q-9 -6 -19 -6q-23 0 -38 21.5t-15 50.5zM289 391q0 -85 61.5 -151t147.5 -66q85 0 147 66t62 151v189q0 81 -62.5 147t-146.5 66q-86 0 -147.5 -65.5t-61.5 -147.5v-189z" />
<glyph unicode="&#xf5;" horiz-adv-x="997" d="M74 391v189q0 162 125 282.5t299 120.5q111 0 209 -54t156.5 -147.5t58.5 -201.5v-189q0 -160 -128 -283.5t-296 -123.5q-111 0 -209.5 56.5t-156.5 150.5t-58 200zM162 1303q0 37 20 64.5t50 41t57 19.5t51 6q58 0 143 -32t140 -32q50 0 96 25.5t61 25.5q28 0 43 -24.5 t15 -44.5q0 -32 -13.5 -57t-33 -38.5t-44.5 -22t-45 -11t-38 -2.5q-65 0 -149.5 31.5t-135.5 31.5q-49 0 -97.5 -27.5t-62.5 -27.5q-29 0 -43 25t-14 49zM289 391q0 -85 61.5 -151t147.5 -66q85 0 147 66t62 151v189q0 81 -62.5 147t-146.5 66q-86 0 -147.5 -65.5 t-61.5 -147.5v-189z" />
<glyph unicode="&#xf6;" horiz-adv-x="997" d="M74 391v189q0 162 125 282.5t299 120.5q111 0 209 -54t156.5 -147.5t58.5 -201.5v-189q0 -160 -128 -283.5t-296 -123.5q-111 0 -209.5 56.5t-156.5 150.5t-58 200zM262 1290q0 39 27.5 66.5t66.5 27.5q38 0 64 -27.5t26 -66.5t-26 -67.5t-64 -28.5q-39 0 -66.5 28.5 t-27.5 67.5zM289 391q0 -85 61.5 -151t147.5 -66q85 0 147 66t62 151v189q0 81 -62.5 147t-146.5 66q-86 0 -147.5 -65.5t-61.5 -147.5v-189zM549 1290q0 38 27 66t65 28t65 -28t27 -66q0 -39 -27 -67.5t-65 -28.5t-65 28.5t-27 67.5z" />
<glyph unicode="&#xf7;" horiz-adv-x="913" d="M57 489q0 37 21 61.5t53 24.5h651q29 0 51.5 -25t22.5 -61q0 -37 -22.5 -61.5t-51.5 -24.5h-651q-32 0 -53 24t-21 62zM334 147q0 46 35 78.5t82 32.5q44 0 79 -32.5t35 -78.5q0 -45 -35 -78.5t-79 -33.5q-46 0 -81.5 33.5t-35.5 78.5zM334 834q0 45 35.5 78.5t81.5 33.5 q44 0 79 -33.5t35 -78.5q0 -46 -35 -79.5t-79 -33.5q-46 0 -81.5 33t-35.5 80z" />
<glyph unicode="&#xf8;" horiz-adv-x="997" d="M74 391v189q0 162 125 282.5t299 120.5q116 0 219 -61l65 100q14 22 37 22q22 0 38.5 -16t16.5 -39q0 -11 -12 -35l-63 -96q123 -117 123 -278v-189q0 -160 -128 -283.5t-296 -123.5q-128 0 -232 69l-65 -100q-13 -19 -35 -19q-19 0 -35 15t-16 35q0 15 10 28l65 103 q-116 119 -116 276zM289 391q0 -53 20 -94l299 459q-53 37 -110 37q-86 0 -147.5 -65.5t-61.5 -147.5v-189zM375 217q56 -43 123 -43q85 0 147 66t62 151v189q0 46 -27 98z" />
<glyph unicode="&#xf9;" horiz-adv-x="1054" d="M104 387v512q0 28 32.5 50t76.5 22q42 0 74 -22t32 -50v-512q0 -83 62 -148t147 -65q86 0 147.5 64.5t61.5 148.5v514q0 28 32.5 49t76.5 21q45 0 74.5 -21t29.5 -49v-514q0 -162 -125 -282.5t-297 -120.5t-298 121t-126 282zM319 1368q0 31 20.5 57.5t49.5 26.5 q7 0 23 -4l254 -129q30 -16 30 -53q0 -31 -20.5 -57.5t-48.5 -26.5q-15 0 -27 6l-248 125q-33 14 -33 55z" />
<glyph unicode="&#xfa;" horiz-adv-x="1054" d="M104 387v512q0 28 32.5 50t76.5 22q42 0 74 -22t32 -50v-512q0 -83 62 -148t147 -65q86 0 147.5 64.5t61.5 148.5v514q0 28 32.5 49t76.5 21q45 0 74.5 -21t29.5 -49v-514q0 -162 -125 -282.5t-297 -120.5t-298 121t-126 282zM356 1266q0 37 31 53l254 129q16 4 23 4 q29 0 49 -26.5t20 -57.5q0 -42 -33 -55l-247 -125q-12 -6 -25 -6q-30 0 -51 26.5t-21 57.5z" />
<glyph unicode="&#xfb;" horiz-adv-x="1054" d="M104 387v512q0 28 32.5 50t76.5 22q42 0 74 -22t32 -50v-512q0 -83 62 -148t147 -65q86 0 147.5 64.5t61.5 148.5v514q0 28 32.5 49t76.5 21q45 0 74.5 -21t29.5 -49v-514q0 -162 -125 -282.5t-297 -120.5t-298 121t-126 282zM244 1264q0 44 37 63l213 115q20 10 34 10 q18 0 35 -10l213 -113q39 -23 39 -67q0 -27 -15.5 -48.5t-37.5 -21.5q-3 0 -11 2.5t-10 3.5l-213 115l-213 -115q-9 -6 -18 -6q-23 0 -38 21.5t-15 50.5z" />
<glyph unicode="&#xfc;" horiz-adv-x="1054" d="M104 387v512q0 28 32.5 50t76.5 22q42 0 74 -22t32 -50v-512q0 -83 62 -148t147 -65q86 0 147.5 64.5t61.5 148.5v514q0 28 32.5 49t76.5 21q45 0 74.5 -21t29.5 -49v-514q0 -162 -125 -282.5t-297 -120.5t-298 121t-126 282zM293 1290q0 39 27.5 66.5t66.5 27.5 q38 0 64 -27.5t26 -66.5t-26 -67.5t-64 -28.5q-39 0 -66.5 28.5t-27.5 67.5zM580 1290q0 38 27 66t65 28t65 -28t27 -66q0 -39 -27 -67.5t-65 -28.5t-65 28.5t-27 67.5z" />
<glyph unicode="&#xfd;" horiz-adv-x="935" d="M20 -369q0 40 15 66.5t45 26.5q41 0 86 20.5t88 59.5t76 106t43 149l-344 795q-9 12 -9 29q0 39 48 70.5t94 31.5q51 0 65 -39l258 -665l222 665q17 39 61 39t93.5 -32t49.5 -74q0 -19 -4 -25l-303 -801q-75 -198 -123 -281q-112 -193 -281 -226q-38 -7 -79 -7 q-48 0 -74.5 19t-26.5 73zM338 1266q0 37 31 53l254 129q16 4 22 4q29 0 49.5 -26.5t20.5 -57.5q0 -42 -33 -55l-248 -125q-12 -6 -24 -6q-30 0 -51 26.5t-21 57.5z" />
<glyph unicode="&#xfe;" horiz-adv-x="1036" d="M115 -389v1868q0 30 29.5 49.5t72.5 19.5q48 0 80.5 -19.5t32.5 -49.5v-652q35 66 104.5 111t157.5 45q153 0 261 -118.5t108 -284.5v-189q0 -105 -49.5 -199t-133.5 -151t-178 -57q-89 0 -163.5 46.5t-106.5 112.5v-532q0 -28 -33 -50t-78 -22q-44 0 -74 21.5t-30 50.5z M330 344q0 -46 62.5 -108t144.5 -62t145 66.5t63 150.5v189q0 81 -63.5 147t-149.5 66q-80 0 -141 -59t-61 -154v-236z" />
<glyph unicode="&#xff;" horiz-adv-x="935" d="M20 -369q0 40 15 66.5t45 26.5q41 0 86 20.5t88 59.5t76 106t43 149l-344 795q-9 12 -9 29q0 39 48 70.5t94 31.5q51 0 65 -39l258 -665l222 665q17 39 61 39t93.5 -32t49.5 -74q0 -19 -4 -25l-303 -801q-75 -198 -123 -281q-112 -193 -281 -226q-38 -7 -79 -7 q-48 0 -74.5 19t-26.5 73zM248 1290q0 39 27.5 66.5t66.5 27.5q38 0 64 -27.5t26 -66.5t-26 -67.5t-64 -28.5q-39 0 -66.5 28.5t-27.5 67.5zM535 1290q0 38 27 66t65 28t65 -28t27 -66q0 -39 -27 -67.5t-65 -28.5t-65 28.5t-27 67.5z" />
<glyph unicode="&#x152;" horiz-adv-x="1710" d="M123 444v596q0 237 113.5 347t308.5 110q96 0 179.5 -38t127.5 -111v77q0 34 28.5 53t67.5 19h654q34 0 51.5 -28t17.5 -66q0 -42 -18.5 -70t-50.5 -28h-560v-469h267q32 0 50.5 -25.5t18.5 -62.5q0 -33 -17.5 -58.5t-51.5 -25.5h-267v-471h560q32 0 50.5 -28.5 t18.5 -70.5q0 -38 -17.5 -66t-51.5 -28h-654q-39 0 -67.5 19t-28.5 53v65q-44 -73 -127.5 -111t-179.5 -38q-195 0 -308.5 109.5t-113.5 346.5zM340 444q0 -133 62 -198.5t180 -65.5q117 0 180 66t63 198v596q0 132 -63.5 198.5t-179.5 66.5q-117 0 -179.5 -66t-62.5 -199 v-596z" />
<glyph unicode="&#x153;" horiz-adv-x="1601" d="M74 391v189q0 162 125 282.5t299 120.5q96 0 182 -47t141 -127q55 80 137 127t175 47q108 0 201 -48t149.5 -135.5t56.5 -195.5q0 -49 -11 -83.5t-26.5 -52t-43.5 -27t-49 -11.5t-56 -2h-432v-47q0 -102 73.5 -162.5t194.5 -60.5q49 0 90.5 12t65 27t48 27t42.5 12 q36 0 60 -32.5t24 -66.5q0 -50 -99 -101.5t-241 -51.5q-115 0 -208.5 46t-150.5 128q-57 -80 -142 -127t-181 -47q-111 0 -209.5 56.5t-156.5 150.5t-58 200zM289 391q0 -85 61.5 -151t147.5 -66q85 0 147 66t62 151v189q0 81 -62.5 147t-146.5 66q-86 0 -147.5 -65.5 t-61.5 -147.5v-189zM922 561h340q43 0 59 13t16 49q0 82 -60 139t-149 57q-85 0 -145.5 -53t-60.5 -135v-70z" />
<glyph unicode="&#x178;" horiz-adv-x="1142" d="M27 1407q0 37 45 63.5t92 26.5q45 0 72 -49l337 -649l336 649q24 49 72 49q47 0 91 -26.5t44 -63.5q0 -19 -6 -31l-424 -764q-4 -12 -4 -22v-518q0 -33 -33 -52.5t-76 -19.5q-44 0 -76 19t-32 53v518q0 4 -6 22l-424 764q-8 16 -8 31zM338 1796q0 39 27.5 66.5t66.5 27.5 q38 0 64 -27.5t26 -66.5t-26 -67.5t-64 -28.5q-39 0 -66.5 28.5t-27.5 67.5zM625 1796q0 38 27 66t65 28t65 -28t27 -66q0 -39 -27 -67.5t-65 -28.5t-65 28.5t-27 67.5z" />
<glyph unicode="&#x2c6;" horiz-adv-x="571" d="M0 1264q0 44 37 63l213 115q20 10 35 10q17 0 34 -10l213 -113q39 -23 39 -67q0 -27 -15.5 -48.5t-37.5 -21.5q-3 0 -10 2.5t-10 3.5l-213 115l-213 -115q-9 -6 -19 -6q-23 0 -38 21.5t-15 50.5z" />
<glyph unicode="&#x2dc;" horiz-adv-x="675" d="M0 1303q0 37 20 64.5t50 41t57 19.5t51 6q58 0 143 -32t140 -32q50 0 96 25.5t61 25.5q28 0 43 -24.5t15 -44.5q0 -32 -13.5 -57t-33 -38.5t-44.5 -22t-45 -11t-38 -2.5q-65 0 -149.5 31.5t-135.5 31.5q-49 0 -97.5 -27.5t-62.5 -27.5q-29 0 -43 25t-14 49z" />
<glyph unicode="&#x2000;" horiz-adv-x="1040" />
<glyph unicode="&#x2001;" horiz-adv-x="2081" />
<glyph unicode="&#x2002;" horiz-adv-x="1040" />
<glyph unicode="&#x2003;" horiz-adv-x="2081" />
<glyph unicode="&#x2004;" horiz-adv-x="693" />
<glyph unicode="&#x2005;" horiz-adv-x="520" />
<glyph unicode="&#x2006;" horiz-adv-x="346" />
<glyph unicode="&#x2007;" horiz-adv-x="346" />
<glyph unicode="&#x2008;" horiz-adv-x="260" />
<glyph unicode="&#x2009;" horiz-adv-x="416" />
<glyph unicode="&#x200a;" horiz-adv-x="115" />
<glyph unicode="&#x2010;" horiz-adv-x="843" d="M84 492q0 39 20 65.5t50 26.5h532q28 0 51 -27.5t23 -64.5q0 -38 -22.5 -64.5t-51.5 -26.5h-532q-31 0 -50.5 25.5t-19.5 65.5z" />
<glyph unicode="&#x2011;" horiz-adv-x="843" d="M84 492q0 39 20 65.5t50 26.5h532q28 0 51 -27.5t23 -64.5q0 -38 -22.5 -64.5t-51.5 -26.5h-532q-31 0 -50.5 25.5t-19.5 65.5z" />
<glyph unicode="&#x2012;" horiz-adv-x="843" d="M84 492q0 39 20 65.5t50 26.5h532q28 0 51 -27.5t23 -64.5q0 -38 -22.5 -64.5t-51.5 -26.5h-532q-31 0 -50.5 25.5t-19.5 65.5z" />
<glyph unicode="&#x2013;" horiz-adv-x="966" d="M84 492q0 39 20 65.5t50 26.5h655q28 0 51 -27.5t23 -64.5q0 -38 -22.5 -64.5t-51.5 -26.5h-655q-31 0 -50.5 25.5t-19.5 65.5z" />
<glyph unicode="&#x2014;" horiz-adv-x="1540" d="M84 492q0 39 20 65.5t50 26.5h1230q28 0 50 -27t22 -65q0 -39 -21.5 -65t-50.5 -26h-1230q-31 0 -50.5 25.5t-19.5 65.5z" />
<glyph unicode="&#x2018;" horiz-adv-x="360" d="M53 1214q0 40 103 273q11 31 47 31q27 0 50 -17t23 -43q0 -9 -6 -24l-45 -109q32 -14 52 -44t20 -67q0 -51 -35.5 -86.5t-87.5 -35.5q-50 0 -85.5 35.5t-35.5 86.5z" />
<glyph unicode="&#x2019;" horiz-adv-x="356" d="M66 1395q0 51 34.5 87t85.5 36q50 0 85.5 -36t35.5 -85q0 -50 -102 -275q-10 -30 -47 -30q-26 0 -50 16.5t-24 42.5q0 13 6 25l45 108q-31 15 -50 45.5t-19 65.5z" />
<glyph unicode="&#x201a;" horiz-adv-x="378" d="M68 111q0 51 34.5 86.5t85.5 35.5t87 -35.5t36 -86.5q0 -42 -102 -273q-13 -31 -49 -31q-26 0 -49 17t-23 43q0 16 4 24l45 109q-31 14 -50 44t-19 67z" />
<glyph unicode="&#x201c;" horiz-adv-x="712" d="M53 1214q0 40 103 273q13 31 47 31q27 0 50 -17t23 -43q0 -9 -6 -24l-45 -109q32 -14 52 -44t20 -67q0 -51 -35.5 -86.5t-87.5 -35.5q-50 0 -85.5 35.5t-35.5 86.5zM406 1214q0 42 102 273q13 31 49 31q26 0 49 -17t23 -43q0 -14 -4 -24l-45 -109q31 -14 50 -44t19 -67 q0 -51 -35 -86.5t-86 -35.5t-86.5 35.5t-35.5 86.5z" />
<glyph unicode="&#x201d;" horiz-adv-x="712" d="M66 1395q0 51 35 87t87 36q50 0 85.5 -36t35.5 -85q0 -44 -102 -275q-13 -30 -47 -30q-27 0 -50.5 16.5t-23.5 42.5q0 13 6 25l45 108q-32 15 -51.5 45.5t-19.5 65.5zM420 1395q0 51 35 87t86 36t87 -35.5t36 -85.5q0 -42 -103 -275q-13 -30 -49 -30q-26 0 -49 16.5 t-23 42.5q0 17 4 25l45 108q-31 15 -50 45.5t-19 65.5z" />
<glyph unicode="&#x201e;" horiz-adv-x="731" d="M68 111q0 51 34.5 86.5t85.5 35.5t87 -35.5t36 -86.5q0 -42 -102 -273q-13 -31 -49 -31q-26 0 -49 17t-23 43q0 16 4 24l45 109q-31 14 -50 44t-19 67zM420 111q0 51 35.5 86.5t87.5 35.5q50 0 85.5 -35.5t35.5 -86.5q0 -40 -103 -273q-13 -31 -47 -31q-27 0 -50.5 17 t-23.5 43q0 12 6 24l46 109q-32 14 -52 44t-20 67z" />
<glyph unicode="&#x2022;" horiz-adv-x="657" d="M78 614q0 96 75.5 168t176.5 72q99 0 173.5 -72t74.5 -168q0 -97 -74 -169t-174 -72q-101 0 -176.5 72t-75.5 169z" />
<glyph unicode="&#x2026;" horiz-adv-x="1146" d="M68 111q0 52 34.5 87t87.5 35q50 0 85.5 -35.5t35.5 -86.5q0 -50 -36 -86.5t-85 -36.5q-53 0 -87.5 36t-34.5 87zM455 111q0 52 35 87t88 35q50 0 85 -35.5t35 -86.5q0 -50 -35.5 -86.5t-84.5 -36.5q-53 0 -88 36t-35 87zM838 111q0 52 35 87t88 35q50 0 85 -35.5 t35 -86.5q0 -50 -35.5 -86.5t-84.5 -36.5q-53 0 -88 36t-35 87z" />
<glyph unicode="&#x202f;" horiz-adv-x="416" />
<glyph unicode="&#x2039;" horiz-adv-x="528" d="M57 565q0 5 1 10t1.5 9t3 10t4 9.5t5.5 10.5l6 10.5t7.5 13t8.5 13.5l162 303q16 29 66 29t89.5 -35t39.5 -71q0 -11 -7 -25l-151 -285l151 -284q7 -10 7 -23q0 -37 -41 -72.5t-91 -35.5q-48 0 -63 30l-162 301q-5 8 -12.5 20.5t-10.5 18t-7 14t-5.5 15t-1.5 14.5z" />
<glyph unicode="&#x203a;" horiz-adv-x="528" d="M78 260q0 14 6 23l152 284l-152 285q-6 12 -6 25q0 36 39.5 71t89.5 35q49 0 65 -29l162 -303q3 -4 8.5 -13.5t7.5 -13l6 -10.5t5.5 -10.5t4 -9.5t3 -10t1.5 -9t1 -10q0 -8 -1.5 -14.5t-5.5 -15t-7 -14t-10.5 -18t-12.5 -20.5l-162 -301q-15 -30 -63 -30 q-50 0 -90.5 35.5t-40.5 72.5z" />
<glyph unicode="&#x205f;" horiz-adv-x="520" />
<glyph unicode="&#x20ac;" horiz-adv-x="1228" d="M51 559q0 35 19.5 58.5t50.5 23.5h108v164h-108q-31 0 -50.5 21t-19.5 55q0 35 19.5 58.5t50.5 23.5h108v77q0 121 35 211t98 142.5t143.5 78t178.5 25.5q206 0 335.5 -103.5t129.5 -275.5q0 -58 -25.5 -79t-83.5 -21q-57 0 -82.5 16t-25.5 51q0 90 -60 155t-182 65 q-119 0 -181.5 -66t-62.5 -199v-77h250q29 0 51.5 -23.5t22.5 -56.5t-22.5 -55.5t-51.5 -22.5h-250v-164h250q29 0 51.5 -23.5t22.5 -56.5t-22.5 -55.5t-51.5 -22.5h-250v-59q0 -45 13 -86t40 -77.5t76.5 -58.5t116.5 -22q120 0 179 65.5t61 166.5q0 36 26 51.5t82 15.5 q59 0 84 -21.5t25 -80.5q0 -176 -129.5 -282.5t-335.5 -106.5q-213 0 -334 115.5t-121 320.5v59h-108q-31 0 -50.5 21t-19.5 55z" />
<glyph unicode="&#x2122;" horiz-adv-x="1341" d="M84 1513q0 24 10 42t29 18h428q20 0 30.5 -18t10.5 -42q0 -25 -11 -42t-30 -17h-150v-440q0 -19 -18.5 -31t-44.5 -12t-45 12t-19 31v440h-151q-18 0 -28.5 17t-10.5 42zM637 1014v495q0 33 18.5 48.5t44.5 15.5q35 0 57 -15.5t42 -56.5l129 -280l129 280q19 42 40.5 57 t57.5 15q64 0 64 -64v-495q0 -19 -19 -31t-45 -12q-25 0 -44 12t-19 31v295l-121 -260q-13 -31 -43 -31q-31 0 -43 31l-119 268v-303q0 -19 -20 -31t-46 -12q-25 0 -44 12t-19 31z" />
<glyph unicode="&#x25fc;" horiz-adv-x="983" d="M0 0v983h983v-983h-983z" />
</font>
</defs>
</svg>
