<?xml version="1.0" standalone="no"?>
<!DOCTYPE svg PUBLIC "-//W3C//DTD SVG 1.1//EN" "http://www.w3.org/Graphics/SVG/1.1/DTD/svg11.dtd" >
<svg xmlns="http://www.w3.org/2000/svg">
<metadata></metadata>
<defs>
<font id="scadabold" horiz-adv-x="1105" >
<font-face units-per-em="2048" ascent="1638" descent="-410" />
<missing-glyph horiz-adv-x="614" />
<glyph horiz-adv-x="0" />
<glyph unicode="&#xd;" horiz-adv-x="681" />
<glyph unicode=" "  horiz-adv-x="614" />
<glyph unicode="&#x09;" horiz-adv-x="614" />
<glyph unicode="&#xa0;" horiz-adv-x="614" />
<glyph unicode="!" horiz-adv-x="593" d="M133 1434h328l-41 -1024h-246zM143 133q0 61 46.5 107.5t107.5 46.5t107.5 -46t46.5 -108q0 -61 -46.5 -107t-107.5 -46t-107.5 46t-46.5 107z" />
<glyph unicode="&#x22;" horiz-adv-x="778" d="M72 1434h276l-51 -502h-174zM430 1434h277l-52 -502h-174z" />
<glyph unicode="#" horiz-adv-x="1366" d="M31 348v184h239l92 369h-215v184h256l93 349h266l-92 -349h204l93 349h266l-92 -349h194v-184h-235l-92 -369h211v-184h-263l-92 -348h-266l92 348h-205l-92 -348h-266l92 348h-188zM537 532h204l93 369h-205z" />
<glyph unicode="$" horiz-adv-x="1095" d="M72 92l92 164h20q31 -27 74 -47q37 -16 94.5 -30.5t139.5 -14.5q123 0 184 56t61 149q0 72 -48 119t-121.5 85.5t-157.5 77.5t-158 92.5t-122 130t-48 191.5q0 129 82 229.5t235 139.5v143h277v-133q78 -8 134 -25.5t95 -34.5q45 -20 78 -43l-92 -163h-21q-29 25 -69 45 q-35 16 -90.5 31.5t-126.5 15.5q-47 0 -86 -15.5t-68 -42t-45 -59.5t-16 -68q0 -72 48 -118.5t121.5 -85.5t157.5 -78t158 -92.5t122 -130t48 -191.5q0 -147 -89 -248.5t-259 -140.5v-143h-277v133q-86 8 -146 25.5t-101 33.5q-47 20 -80 43z" />
<glyph unicode="%" horiz-adv-x="1740" d="M41 1085q0 80 27.5 147.5t74.5 117t113 77t143 27.5q76 0 142.5 -27.5t113.5 -77t75 -117t28 -147.5t-28 -147.5t-75 -116.5t-113.5 -76.5t-142.5 -27.5q-78 0 -143.5 27.5t-112.5 76.5t-74.5 117t-27.5 147zM236 0l962 1434h307l-962 -1434h-307zM287 1085 q0 -115 32.5 -159.5t79.5 -44.5q45 0 79 45t34 159q0 115 -34 160t-79 45q-47 0 -79.5 -45t-32.5 -160zM983 348q0 80 27.5 147.5t75 117t113 77t142.5 27.5q76 0 142.5 -27.5t114 -77t75 -117t27.5 -147.5t-27.5 -147.5t-75 -116.5t-114 -76.5t-142.5 -27.5 q-78 0 -143 27.5t-112.5 76.5t-75 116.5t-27.5 147.5zM1229 348q0 -115 32.5 -160t79.5 -45q45 0 79 45t34 160t-34 160t-79 45q-47 0 -79.5 -45t-32.5 -160z" />
<glyph unicode="&#x26;" horiz-adv-x="1320" d="M41 369q0 100 47 176t107 129q68 61 153 104q-53 43 -92 96q-35 47 -63.5 111t-28.5 141q0 70 26.5 129.5t76.5 103.5t125 69.5t171 25.5q92 0 165 -24.5t122 -67.5t75.5 -98.5t26.5 -116.5q0 -86 -43 -155.5t-96 -119.5q-61 -59 -139 -104l258 -307q2 27 4 59 q2 27 4 61.5t2 73.5h266q0 -131 -34.5 -220t-88.5 -159l226 -276h-328l-82 102q-47 -35 -106 -61q-51 -23 -123 -42t-160 -19q-111 0 -199 30.5t-148.5 82.5t-92 124t-31.5 152zM328 369q0 -86 62.5 -145.5t162.5 -59.5q57 0 102 10t74 25q35 16 59 37l-317 378 q-41 -29 -72 -65q-29 -33 -50 -78t-21 -102zM451 1126q0 -35 14 -71.5t31 -65.5q20 -35 47 -67q35 29 61 65q23 31 42.5 72t19.5 88q0 61 -32 97t-71 36q-47 0 -79.5 -38t-32.5 -116z" />
<glyph unicode="'" horiz-adv-x="419" d="M72 1434h276l-51 -502h-174z" />
<glyph unicode="(" horiz-adv-x="655" d="M113 573q0 145 30.5 282.5t88 259.5t136 226.5t175.5 184.5l112 -113q-123 -162 -189.5 -363t-66.5 -477t66.5 -476.5t189.5 -362.5l-112 -113q-96 80 -175 184.5t-136.5 226.5t-88 259t-30.5 282z" />
<glyph unicode=")" horiz-adv-x="655" d="M0 -266q123 162 189.5 362.5t66.5 476.5t-66.5 477t-189.5 363l113 113q96 -80 175 -184.5t136 -226.5t88 -259t31 -283q0 -145 -31 -282t-88 -259t-136 -226.5t-175 -184.5z" />
<glyph unicode="*" horiz-adv-x="901" d="M61 942l197 113l-197 112l93 164l204 -119v222h185v-222l205 119l92 -164l-197 -112l197 -113l-92 -164l-205 117v-219h-185v219l-204 -117z" />
<glyph unicode="+" horiz-adv-x="1003" d="M61 573v205h338v338h205v-338h338v-205h-338v-337h-205v337h-338z" />
<glyph unicode="," horiz-adv-x="450" d="M72 133q0 31 12 58.5t32.5 49t46 34t52.5 12.5q70 0 117 -48.5t47 -125.5q0 -113 -36 -186.5t-77 -119.5q-51 -53 -112 -83l-62 81q37 23 66 50q25 23 46 54.5t21 70.5q-61 0 -107 46t-46 107z" />
<glyph unicode="-" horiz-adv-x="921" d="M61 573v205h799v-205h-799z" />
<glyph unicode="." horiz-adv-x="450" d="M72 133q0 61 46 107.5t107 46.5t107.5 -46t46.5 -108q0 -61 -46 -107t-108 -46q-61 0 -107 46t-46 107z" />
<glyph unicode="/" horiz-adv-x="921" d="M0 0l635 1434h287l-635 -1434h-287z" />
<glyph unicode="0" horiz-adv-x="1249" d="M102 717q0 197 38 336t107.5 228t166 131t211.5 42t211 -42t164.5 -131t107.5 -228.5t39 -335.5q0 -197 -39 -336t-107.5 -228.5t-165 -131t-210.5 -41.5q-115 0 -211.5 41.5t-166 131t-107.5 228.5t-38 336zM389 717q0 -166 19.5 -272.5t52.5 -169t75 -87t89 -24.5 q45 0 88 24.5t75.5 87t52 169t19.5 272.5t-19.5 272.5t-52 169t-75.5 87t-88 24.5q-47 0 -89 -24.5t-75 -87t-52.5 -169t-19.5 -272.5z" />
<glyph unicode="1" horiz-adv-x="839" d="M31 1188l297 246h266v-1250h205v-184h-697v184h205v963l-164 -113z" />
<glyph unicode="2" horiz-adv-x="1054" d="M41 0v143q0 117 48 209t122 167t158 139.5t157.5 127t121.5 130t48 149.5q0 92 -59 148.5t-176 56.5q-74 0 -128 -15.5t-89 -31.5q-41 -20 -70 -45h-20l-93 163q45 31 107 56q53 23 131 40t182 17q254 0 378 -112.5t124 -297.5q0 -106 -48 -192t-122 -157.5t-158 -133 t-157.5 -122t-121.5 -122t-48 -133.5h655v-184h-942z" />
<glyph unicode="3" horiz-adv-x="1064" d="M10 92l92 164h21q29 -27 70 -47q35 -16 89 -30.5t128 -14.5q154 0 225.5 64.5t71.5 181.5q0 131 -72 198.5t-225 67.5h-236v184l430 389h-563v185h891v-185l-451 -389q127 0 222.5 -34.5t160 -95t97 -142.5t32.5 -178t-33.5 -175t-102.5 -136.5t-175.5 -88t-251.5 -30.5 q-104 0 -182 16t-131 39q-61 25 -107 57z" />
<glyph unicode="4" horiz-adv-x="1146" d="M20 328v184l676 922h267v-922h143v-184h-143v-328h-287v328h-656zM307 512h369v430q0 47 10 84q4 20 10 39h-8q-8 -18 -16 -41q-8 -18 -19.5 -39.5t-27.5 -42.5z" />
<glyph unicode="5" d="M72 92l92 164h20q29 -27 70 -47q35 -16 89 -30.5t128 -14.5q276 0 277 276q0 276 -277 277h-258l-80 84v633h828v-164h-541v-369h82q270 0 401 -122t131 -339q0 -215 -133 -337.5t-409 -122.5q-104 0 -182.5 16t-131.5 39q-61 25 -106 57z" />
<glyph unicode="6" horiz-adv-x="1146" d="M92 471v410q0 137 37 244.5t105.5 180t165 110.5t214.5 38q96 0 171 -17.5t126 -39.5q59 -25 105 -56l-92 -163h-21q-31 25 -69 45q-35 16 -84 31.5t-115 15.5q-57 0 -104.5 -20.5t-81 -66.5t-52 -121t-18.5 -181q27 16 63 30q31 10 75 20.5t97 10.5q217 0 339 -124 t122 -347q0 -240 -125 -365.5t-354 -125.5q-248 0 -376 125.5t-128 365.5zM379 471q0 -162 61.5 -234.5t153.5 -72.5q39 0 73.5 17.5t61.5 55t43 96t16 138.5q0 147 -62.5 217t-162.5 70q-39 0 -72.5 -10.5t-58.5 -20.5q-29 -14 -53 -31v-225z" />
<glyph unicode="7" horiz-adv-x="983" d="M20 1249v185h943v-185q-70 -84 -135.5 -194.5t-118 -245.5t-84 -292t-31.5 -333v-184h-287v184q0 176 32 333t84 292t117.5 245.5t135.5 194.5h-656z" />
<glyph unicode="8" horiz-adv-x="1146" d="M51 369q0 119 51.5 194.5t112.5 118.5q72 51 164 76q-78 23 -139 65q-53 37 -95.5 102.5t-42.5 170.5q0 70 32 134t92.5 114.5t148 80t198.5 29.5t199 -29.5t148.5 -80t92 -115t31.5 -133.5q0 -104 -43 -170t-96 -103q-61 -43 -137 -65q92 -25 164 -76q61 -43 112.5 -119 t51.5 -194q0 -80 -33 -152t-98.5 -124t-162.5 -82.5t-229 -30.5q-131 0 -228 30.5t-162.5 82.5t-98.5 124t-33 152zM338 369q0 -92 59.5 -148.5t175.5 -56.5q117 0 176.5 56t59.5 149q0 61 -18.5 105t-50 76t-75 54.5t-92.5 40.5q-49 -18 -92 -40.5t-74.5 -54.5t-50 -76 t-18.5 -105zM389 1096q0 -100 50 -147.5t134 -78.5q84 31 134.5 78t50.5 148q0 70 -53.5 122t-131.5 52t-131 -52.5t-53 -121.5z" />
<glyph unicode="9" horiz-adv-x="1146" d="M72 963q0 240 125 365.5t354 125.5q248 0 376 -126t128 -365v-410q0 -139 -37 -245.5t-105.5 -179.5t-165 -110.5t-215.5 -37.5q-98 0 -171.5 16t-124.5 39q-59 25 -105 57l92 164h21q31 -27 69 -47q35 -16 84 -30.5t115 -14.5q57 0 104.5 20.5t81 66.5t52 119.5 t18.5 182.5q-27 -18 -63 -31q-31 -12 -75 -21t-98 -9q-217 0 -338.5 123.5t-121.5 347.5zM358 963q0 -147 63 -217t163 -70q39 0 72.5 9t58.5 22q29 12 53 30v226q0 162 -61.5 234.5t-153.5 72.5q-39 0 -74 -17.5t-61.5 -55.5t-43 -96.5t-16.5 -137.5z" />
<glyph unicode=":" horiz-adv-x="450" d="M72 133q0 61 46 107.5t107 46.5t107.5 -46t46.5 -108q0 -61 -46 -107t-108 -46q-61 0 -107 46t-46 107zM72 891q0 61 46 107t107 46t107.5 -46t46.5 -107t-46 -107.5t-108 -46.5q-61 0 -107 46t-46 108z" />
<glyph unicode=";" horiz-adv-x="450" d="M72 133q0 31 12 58.5t32.5 49t46 34t52.5 12.5q70 0 117 -48.5t47 -125.5q0 -113 -36 -186.5t-77 -119.5q-51 -53 -112 -83l-62 81q37 23 66 50q25 23 46 54.5t21 70.5q-61 0 -107 46t-46 107zM72 891q0 61 46 107t107 46t107.5 -46t46.5 -107t-46 -107.5t-108 -46.5 q-61 0 -107 46t-46 108z" />
<glyph unicode="&#x3c;" horiz-adv-x="931" d="M41 430v164l819 430v-246l-512 -266l512 -266v-246z" />
<glyph unicode="=" horiz-adv-x="1044" d="M72 379v205h901v-205h-901zM72 770v205h901v-205h-901z" />
<glyph unicode="&#x3e;" horiz-adv-x="931" d="M72 0v246l512 266l-512 266v246l819 -430v-164z" />
<glyph unicode="?" horiz-adv-x="1003" d="M0 1341q45 31 106 56q53 23 131.5 40t182.5 17q131 0 227 -28.5t159.5 -81t94.5 -124t31 -155.5q0 -92 -30 -156.5t-74 -111.5t-96 -83t-96 -71t-74 -76t-30 -96v-61h-266v61q0 86 28 147.5t71 107.5t91 83t91 76t70.5 86t27.5 114q0 78 -61.5 131.5t-184.5 53.5 q-74 0 -128 -15.5t-89 -31.5q-41 -20 -69 -45h-21zM246 133q0 61 46 107.5t107 46.5t107.5 -46t46.5 -108q0 -61 -46 -107t-108 -46q-61 0 -107 46t-46 107z" />
<glyph unicode="@" horiz-adv-x="1966" d="M82 614q0 184 65.5 342t185.5 272.5t284.5 180.5t365.5 66q199 0 364.5 -66t285.5 -180.5t185.5 -272t65.5 -342.5q0 -119 -32.5 -212t-91 -157.5t-139.5 -98t-177 -33.5q-70 0 -120 16t-83 39q-37 25 -63 57h-11q-23 -33 -57 -57q-29 -23 -76 -39t-112 -16 q-80 0 -150 30.5t-121 92t-79.5 153.5t-28.5 215t28.5 215t79.5 153.5t121 92.5t150 31q57 0 102 -17.5t78 -40.5q37 -25 65 -55h11l20 92h184v-758q10 -8 23 -16q25 -14 59 -14q35 0 67 16t55.5 55t37.5 101.5t14 154.5q0 145 -50 269.5t-139 214.5t-209 141t-257 51 q-139 0 -258 -51t-208 -141t-139 -214t-50 -270q0 -145 50 -269t139 -214t208 -141t258 -51q86 0 146.5 14t101.5 31q47 20 80 47h20l92 -164q-47 -33 -114 -57q-59 -23 -144 -39.5t-202 -16.5q-193 0 -355 65.5t-278.5 180.5t-182 272.5t-65.5 341.5zM809 604 q0 -88 14.5 -147.5t37 -94t52 -50t60.5 -15.5q35 0 61.5 7t44.5 18q23 10 37 26v471q-18 25 -41 45q-20 16 -45.5 31.5t-56.5 15.5q-35 0 -64.5 -15t-52 -50t-35 -94.5t-12.5 -147.5z" />
<glyph unicode="A" horiz-adv-x="1228" d="M31 0l420 1434h327l420 -1434h-287l-92 328h-409l-93 -328h-286zM461 512h307l-123 430q-8 25 -12 51.5t-8 48.5q-4 27 -7 54h-8l-8 -54q-4 -23 -8 -50t-10 -50z" />
<glyph unicode="B" horiz-adv-x="1249" d="M174 0v1434h430q127 0 219 -28t152.5 -77t90.5 -116.5t30 -147.5q0 -100 -41 -160.5t-88 -93.5q-55 -37 -127 -53q86 -16 153 -60q57 -37 105.5 -108.5t48.5 -190.5q0 -92 -30 -165.5t-95.5 -126t-168.5 -80t-249 -27.5h-430zM461 184h143q256 0 256 236q0 235 -254 235 h-2h-143v-471zM461 840h143q92 0 148.5 56t56.5 148t-56.5 148.5t-148.5 56.5h-143v-409z" />
<glyph unicode="C" horiz-adv-x="1095" d="M102 717q0 197 39 336t111 228t174 131t229 42q88 0 159 -17.5t120 -39.5q57 -25 100 -56l-92 -163h-20q-29 25 -66 45q-33 16 -78 31.5t-102 15.5q-61 0 -113.5 -25.5t-91.5 -89t-60.5 -170t-21.5 -268.5t22.5 -268.5t62.5 -170t96.5 -89t125.5 -25.5q57 0 102.5 14.5 t78.5 30.5q37 20 65 47h21l92 -164q-43 -33 -101 -57q-49 -23 -119.5 -39t-158.5 -16q-135 0 -241.5 41.5t-180.5 131t-113 228.5t-39 336z" />
<glyph unicode="D" horiz-adv-x="1259" d="M174 0v1434h348q307 0 471 -174.5t164 -542.5q0 -369 -164 -543t-471 -174h-348zM461 184h61q84 0 149.5 26t109.5 87t66.5 163.5t22.5 256.5t-22.5 256t-66.5 163.5t-109.5 87t-149.5 25.5h-61v-1065z" />
<glyph unicode="E" horiz-adv-x="1085" d="M174 0v1434h860v-185h-573v-409h450v-185h-450v-471h573v-184h-860z" />
<glyph unicode="F" horiz-adv-x="1075" d="M174 0v1434h860v-185h-573v-430h450v-184h-450v-635h-287z" />
<glyph unicode="G" horiz-adv-x="1208" d="M102 717q0 197 39 336t111 228t174 131t229 42q88 0 159 -17.5t120 -39.5q57 -25 100 -56l-92 -163h-20q-29 25 -66 45q-33 16 -78 31.5t-102 15.5q-61 0 -113.5 -25.5t-91.5 -89t-60.5 -170t-21.5 -268.5t22.5 -268.5t62.5 -170t96.5 -89t125.5 -25.5q39 0 70 10 q16 4 33 10v430h-215v185h420l81 -82v-625q-43 -33 -104 -57q-53 -23 -129 -39t-176 -16q-135 0 -241.5 41.5t-180.5 131t-113 228.5t-39 336z" />
<glyph unicode="H" horiz-adv-x="1351" d="M174 0v1434h287v-615h430v615h287v-1434h-287v635h-430v-635h-287z" />
<glyph unicode="I" horiz-adv-x="634" d="M174 0v1434h287v-1434h-287z" />
<glyph unicode="J" horiz-adv-x="921" d="M0 72l82 174h20q27 -23 58 -41q27 -16 59.5 -28.5t67.5 -12.5q92 0 143 54t51 171v1045h287v-1045q0 -184 -119 -296.5t-342 -112.5q-61 0 -117.5 14t-97.5 31q-51 20 -92 47z" />
<glyph unicode="K" horiz-adv-x="1198" d="M174 0v1434h287v-635l379 635h317l-430 -686l461 -748h-328l-399 676v-676h-287z" />
<glyph unicode="L" horiz-adv-x="1034" d="M174 0v1434h287v-1250h553v-184h-840z" />
<glyph unicode="M" horiz-adv-x="1781" d="M174 0v1434h277l399 -809q16 -33 27 -68q6 -18 10 -35h8q4 16 10 35q10 35 27 68l399 809h277v-1434h-287v748q0 23 1 46t3 44q2 23 6 45h-8q-6 -23 -14 -45q-8 -20 -18.5 -44t-20.5 -46l-256 -512h-246l-256 512q-12 23 -21.5 46t-17.5 44q-8 23 -14 45h-8q2 -23 4 -45 q2 -20 4 -44t2 -46v-748h-287z" />
<glyph unicode="N" horiz-adv-x="1351" d="M174 0v1434h307l359 -799q10 -23 19 -47.5t18 -42.5q8 -23 16 -43h8q-4 20 -6 43q-2 18 -3 42.5t-1 47.5v799h287v-1434h-308l-358 799q-10 23 -19.5 46t-17.5 44q-8 23 -16 43h-8q2 -20 4 -43q2 -20 4 -44t2 -46v-799h-287z" />
<glyph unicode="O" horiz-adv-x="1290" d="M102 717q0 197 39 336t110 228t171 131t223 42t223.5 -42t171 -131t109.5 -228t39 -336t-39 -336t-109.5 -228.5t-171 -131t-223.5 -41.5t-223 41.5t-171 131t-110 228.5t-39 336zM389 717q0 -162 21.5 -268.5t56.5 -170t82 -89t96 -25.5t96 25.5t82 89t56.5 170 t21.5 268.5t-21.5 268.5t-56.5 170t-82 89t-96 25.5t-96 -25.5t-82 -89t-56.5 -170t-21.5 -268.5z" />
<glyph unicode="P" horiz-adv-x="1218" d="M174 0v1434h410q293 0 423 -121t130 -361t-130 -360.5t-423 -120.5h-123v-471h-287zM461 655h123q139 0 202.5 68t63.5 229q0 162 -63.5 229.5t-202.5 67.5h-123v-594z" />
<glyph unicode="Q" horiz-adv-x="1290" d="M102 717q0 197 39 336t110 228t171 131t223 42t223.5 -42t171 -131t109.5 -228t39 -336q0 -330 -107.5 -501t-292.5 -216q0 -78 32 -116t71 -38q37 0 53 11q8 4 17 10h20l53 -164q-18 -12 -43 -20q-23 -8 -52.5 -14.5t-68.5 -6.5q-84 0 -151.5 25.5t-115.5 70.5 t-74.5 106.5t-26.5 135.5q-184 45 -292 216t-108 501zM389 717q0 -162 21.5 -268.5t56.5 -170t82 -89t96 -25.5t96 25.5t82 89t56.5 170t21.5 268.5t-21.5 268.5t-56.5 170t-82 89t-96 25.5t-96 -25.5t-82 -89t-56.5 -170t-21.5 -268.5z" />
<glyph unicode="R" horiz-adv-x="1228" d="M174 0v1434h389q291 0 422 -119t131 -342q0 -129 -42 -208t-91 -124q-59 -53 -133 -78l348 -563h-328l-297 512h-112v-512h-287zM461 696h102q139 0 202.5 64.5t63.5 212.5q0 147 -63.5 211.5t-202.5 64.5h-102v-553z" />
<glyph unicode="S" horiz-adv-x="1095" d="M72 92l92 164h20q31 -27 74 -47q37 -16 94.5 -30.5t139.5 -14.5q123 0 184 56t61 149q0 72 -48 119t-121.5 85.5t-157.5 77.5t-158 92.5t-122 130t-48 191.5q0 80 31.5 151.5t93 124t151.5 83t205 30.5q104 0 182 -17.5t132 -39.5q61 -25 106 -56l-92 -163h-21 q-29 25 -69 45q-35 16 -90.5 31.5t-126.5 15.5q-47 0 -86 -15.5t-68 -42t-45 -59.5t-16 -68q0 -72 48 -118.5t121.5 -85.5t157.5 -78t158 -92.5t122 -130t48 -191.5q0 -88 -33 -162.5t-97.5 -130t-159.5 -86t-222 -30.5q-113 0 -194.5 16t-137.5 39q-66 25 -108 57z" />
<glyph unicode="T" horiz-adv-x="1044" d="M20 1249v185h1004v-185h-358v-1249h-287v1249h-359z" />
<glyph unicode="U" horiz-adv-x="1310" d="M154 471v963h286v-963q0 -162 61.5 -234.5t153.5 -72.5t153.5 72.5t61.5 234.5v963h287v-963q0 -231 -131 -361t-371 -130t-370.5 130t-130.5 361z" />
<glyph unicode="V" horiz-adv-x="1208" d="M31 1434h286l256 -942q6 -25 10.5 -51.5t8.5 -49.5q4 -27 8 -53h8q2 25 6 51q4 23 8.5 50.5t12.5 52.5l256 942h287l-410 -1434h-328z" />
<glyph unicode="W" horiz-adv-x="1843" d="M31 1434h286l205 -902q8 -39 13 -79q2 -23 4 -43h8q2 20 4 43q4 41 12 79l207 902h303l207 -902q8 -39 12 -79q2 -23 4 -43h9q2 20 4 43q4 41 12 79l205 902h286l-348 -1434h-307l-215 891q-4 18 -7 41.5t-5 44.5q-2 23 -4 47h-8q-2 -25 -5 -47q-2 -20 -5 -44t-7 -42 l-215 -891h-307z" />
<glyph unicode="X" horiz-adv-x="1146" d="M20 0l359 727l-348 707h307l205 -441q6 -16 11 -31.5t9 -29.5q4 -16 6 -31h9q2 14 6 31q4 14 8 29.5t12 31.5l205 441h307l-348 -707l358 -727h-307l-215 461q-8 16 -12 31.5t-8 29.5q-4 16 -6 31h-9q-2 -14 -6 -31q-4 -14 -9 -29.5t-11 -31.5l-215 -461h-308z" />
<glyph unicode="Y" horiz-adv-x="1167" d="M0 1434h297l256 -605q6 -16 11 -31.5t9 -29.5q4 -16 7 -31h8q2 14 6 31q4 14 8 29.5t12 31.5l256 605h297l-440 -963v-471h-287v471z" />
<glyph unicode="Z" horiz-adv-x="1075" d="M72 0v195l594 1054h-594v185h921v-195l-594 -1055h605v-184h-932z" />
<glyph unicode="[" horiz-adv-x="686" d="M174 -348v1843h492v-184h-205v-1475h205v-184h-492z" />
<glyph unicode="\" horiz-adv-x="921" d="M0 1434h287l635 -1434h-287z" />
<glyph unicode="]" horiz-adv-x="686" d="M20 -164h205v1475h-205v184h492v-1843h-492v184z" />
<glyph unicode="^" horiz-adv-x="962" d="M0 901l379 574h205l379 -574h-267l-215 328l-215 -328h-266z" />
<glyph unicode="_" horiz-adv-x="798" d="M0 -82h799v-205h-799v205z" />
<glyph unicode="`" horiz-adv-x="409" d="M20 1434h277l92 -308h-164z" />
<glyph unicode="a" d="M82 297q0 74 25.5 134.5t82 103.5t143.5 66.5t210 23.5h143v30q0 109 -47 157t-147 48q-51 0 -90.5 -12t-67.5 -29q-33 -18 -58 -41h-20l-92 164q43 29 96 51q47 18 110.5 34.5t141.5 16.5q111 0 197 -28.5t144 -80.5t89 -124t31 -156v-655h-205l-20 123h-11 q-31 -41 -69 -72q-35 -29 -86.5 -50t-120.5 -21q-184 0 -281.5 89t-97.5 228zM369 297q0 -53 36.5 -88t106.5 -35q39 0 70.5 19.5t54.5 42.5q27 27 49 61v143h-143q-92 0 -133 -36.5t-41 -106.5z" />
<glyph unicode="b" horiz-adv-x="1146" d="M143 0v1352l82 82h205v-451q23 16 55 31q27 10 65 20t85 10q96 0 175 -32.5t136.5 -99t88 -166t30.5 -234.5t-30.5 -234.5t-86 -166t-130.5 -99t-163 -32.5q-70 0 -121 21.5t-85 49.5q-41 31 -70 72h-10l-21 -123h-205zM430 297q20 -35 45 -61q23 -23 54.5 -42.5 t74.5 -19.5q35 0 66.5 16.5t55.5 56.5t38 104.5t14 160.5q0 100 -14 166.5t-41 106.5t-61.5 57.5t-77.5 17.5q-35 0 -62.5 -10t-48.5 -21q-23 -14 -43 -30v-502z" />
<glyph unicode="c" horiz-adv-x="972" d="M82 512q0 270 125 401t356 131q78 0 140.5 -16t109.5 -35q53 -23 98 -51l-92 -164h-20q-25 23 -58 41q-29 16 -68.5 28.5t-88.5 12.5t-89 -17.5t-68 -57.5t-43 -106.5t-15 -166.5t15 -166.5t45 -106.5t74 -57.5t101 -17.5q49 0 89 12t69 29q33 18 57 41h21l92 -164 q-45 -29 -98 -51q-47 -20 -109.5 -35.5t-140.5 -15.5q-248 0 -375 131t-127 401z" />
<glyph unicode="d" horiz-adv-x="1146" d="M82 512q0 135 30.5 234.5t88 166t136.5 99t175 32.5q47 0 83 -10t64 -20q31 -14 58 -31v369l82 82h205v-1434h-205l-21 123h-10q-31 -41 -70 -72q-35 -29 -86 -50t-120 -21q-88 0 -163 32.5t-130.5 99t-86 166t-30.5 234.5zM369 512q0 -96 14 -160.5t37.5 -104.5 t55.5 -56.5t67 -16.5q41 0 73.5 19.5t55.5 42.5q25 27 45 61v502q-20 16 -43 30q-20 10 -48 20.5t-63 10.5q-43 0 -77.5 -17.5t-61.5 -57.5t-41 -106.5t-14 -166.5z" />
<glyph unicode="e" horiz-adv-x="1064" d="M82 512q0 268 122 400t328 132q207 0 329 -129t122 -383v-51l-61 -61h-553q0 -256 245 -256q49 0 89 12t69 29q33 18 57 41h21l92 -164q-45 -29 -98 -51q-47 -20 -109.5 -35.5t-140.5 -15.5q-512 0 -512 532zM369 604h327q0 131 -51.5 193.5t-112.5 62.5t-112 -62.5 t-51 -193.5z" />
<glyph unicode="f" horiz-adv-x="747" d="M41 840v184h113v82q0 154 103 251t296 97q61 0 116.5 -16.5t98.5 -34.5q49 -23 92 -51l-92 -164h-20q-25 23 -54 41q-25 16 -55.5 28.5t-65.5 12.5q-53 0 -93 -43t-40 -121v-82h256v-184h-256v-840h-286v840h-113z" />
<glyph unicode="g" horiz-adv-x="1146" d="M82 512q0 135 30.5 234.5t86 166t130 99t163.5 32.5q70 0 121 -22.5t85 -48.5q39 -33 70 -72h10l21 123h205v-1044q0 -88 -32 -163t-93.5 -130.5t-151.5 -86t-205 -30.5q-82 0 -147.5 15.5t-112.5 35.5q-55 23 -98 51l92 164h20q25 -23 60 -41q29 -16 71 -28.5t95 -12.5 q100 0 157.5 58.5t57.5 167.5v61q-27 -18 -58 -31q-29 -12 -64.5 -21t-82.5 -9q-96 0 -175 32.5t-136.5 99t-88 166t-30.5 234.5zM369 512q0 -100 14 -166.5t41 -106.5t61.5 -57.5t77.5 -17.5q35 0 62.5 9t48.5 22q23 12 43 30v502q-20 35 -45 61q-23 23 -55.5 42.5 t-73.5 19.5q-35 0 -67 -16.5t-55.5 -56.5t-37.5 -104.5t-14 -160.5z" />
<glyph unicode="h" horiz-adv-x="1177" d="M143 0v1352l82 82h205v-482q25 25 59 45q29 16 71 31.5t95 15.5q186 0 287.5 -101t101.5 -288v-655h-286v655q0 100 -42 147.5t-112 47.5q-43 0 -74.5 -19.5t-54.5 -42.5q-25 -27 -45 -61v-727h-287z" />
<glyph unicode="i" horiz-adv-x="573" d="M133 1311q0 61 46.5 107t107.5 46t107 -46t46 -107t-46 -107.5t-107 -46.5t-107.5 46t-46.5 108zM143 0v1024h287v-1024h-287z" />
<glyph unicode="j" horiz-adv-x="614" d="M-154 -348l72 174h21q14 -16 32 -27q16 -10 36.5 -17t43.5 -7q61 0 97 39t36 125v1085h287v-1085q0 -154 -103.5 -251.5t-295.5 -97.5q-47 0 -88 9.5t-72 21.5q-37 12 -66 31zM174 1311q0 61 46.5 107t107.5 46t107 -46t46 -107t-46 -107.5t-107 -46.5t-107.5 46 t-46.5 108z" />
<glyph unicode="k" horiz-adv-x="1044" d="M143 0v1352l82 82h205v-850l266 440h318l-328 -492l348 -532h-317l-287 481v-481h-287z" />
<glyph unicode="l" horiz-adv-x="573" d="M143 0v1352l82 82h205v-1434h-287z" />
<glyph unicode="m" horiz-adv-x="1710" d="M143 0v1024h205l21 -123h10q29 39 65 72q33 27 81 49t110 22q78 0 128 -22.5t81 -48.5q37 -33 57 -72q33 39 80 72q41 27 97.5 49t129.5 22q170 0 269.5 -101t99.5 -288v-655h-287v655q0 100 -40 147.5t-93 47.5q-35 0 -62.5 -16.5t-47.5 -34.5q-23 -23 -43 -51v-748 h-287v655q0 100 -40 147.5t-93 47.5q-39 0 -68 -19.5t-47 -42.5q-23 -27 -39 -61v-727h-287z" />
<glyph unicode="n" horiz-adv-x="1177" d="M143 0v1024h205l21 -123h10q29 39 70 72q35 27 86 49t120 22q186 0 287.5 -101t101.5 -288v-655h-286v655q0 100 -42 147.5t-112 47.5q-43 0 -74.5 -19.5t-54.5 -42.5q-25 -27 -45 -61v-727h-287z" />
<glyph unicode="o" d="M82 512q0 270 124 401t347 131t347 -131t124 -401t-124 -401t-347 -131t-347 131t-124 401zM369 512q0 -100 14 -166.5t38.5 -106.5t58.5 -57.5t73 -17.5t72.5 17.5t58.5 57.5t39 106.5t14 166.5t-14 166.5t-39 106.5t-58.5 57.5t-72.5 17.5t-73 -17.5t-58.5 -57.5 t-38.5 -106.5t-14 -166.5z" />
<glyph unicode="p" horiz-adv-x="1146" d="M143 -410v1434h205l21 -123h10q29 39 70 72q35 27 86 49t120 22q88 0 163 -32.5t130.5 -99t86 -166t30.5 -234.5t-30.5 -234.5t-88 -166t-136.5 -99t-175 -32.5q-47 0 -85 9t-65 21q-33 12 -55 31v-369l-82 -82h-205zM430 225q20 -18 43 -30q20 -12 48 -21.5t63 -9.5 q43 0 77.5 17.5t61.5 57.5t41 106.5t14 166.5q0 96 -14 160.5t-38 104.5t-55.5 56.5t-66.5 16.5q-43 0 -74.5 -19.5t-54.5 -42.5q-25 -27 -45 -61v-502z" />
<glyph unicode="q" horiz-adv-x="1146" d="M82 512q0 135 30.5 234.5t86 166t130 99t163.5 32.5q70 0 121 -22.5t85 -48.5q39 -33 70 -72h10l21 123h205v-1434h-205l-82 82v369q-27 -18 -58 -31q-29 -12 -64.5 -21t-82.5 -9q-96 0 -175 32.5t-136.5 99t-88 166t-30.5 234.5zM369 512q0 -100 14 -166.5t41 -106.5 t61.5 -57.5t77.5 -17.5q35 0 62.5 9t48.5 22q23 12 43 30v502q-20 35 -45 61q-23 23 -55.5 42.5t-73.5 19.5q-35 0 -67 -16.5t-55.5 -56.5t-37.5 -104.5t-14 -160.5z" />
<glyph unicode="r" horiz-adv-x="808" d="M143 0v1024h205l21 -123h10q29 39 70 72q35 27 86 49t120 22q27 0 54.5 -3t50.5 -7q25 -6 49 -10l-41 -205h-20q-23 4 -46 10q-20 4 -45.5 7.5t-52.5 3.5q-43 0 -74.5 -19.5t-54.5 -42.5q-25 -27 -45 -61v-717h-287z" />
<glyph unicode="s" horiz-adv-x="993" d="M61 82l93 164h20q33 -23 74 -41q35 -16 86 -28.5t117 -12.5q109 0 151.5 33.5t42.5 81.5q0 43 -42 69.5t-104.5 49t-135 45t-135 59.5t-104.5 92t-42 143q0 66 25.5 122t78 97t134 64.5t192.5 23.5q86 0 155.5 -16t123.5 -35q61 -23 110 -51l-92 -164h-21q-31 23 -69 41 q-35 16 -82 28.5t-105 12.5q-86 0 -124.5 -31.5t-38.5 -70.5q0 -43 42 -69.5t104.5 -49.5t135 -45.5t135 -59t104.5 -93t42 -142.5q0 -70 -25.5 -128t-81 -101t-140.5 -66.5t-204 -23.5q-92 0 -170 15t-133 36q-66 23 -117 51z" />
<glyph unicode="t" horiz-adv-x="849" d="M31 840v123l307 307h113v-246h235v-184h-235v-512q0 -86 32.5 -125t79.5 -39q35 0 65.5 12t55.5 29q29 18 53 41h21l92 -164q-43 -29 -92 -51q-43 -20 -98.5 -35.5t-116.5 -15.5q-88 0 -159 25.5t-120 71.5t-74.5 109.5t-25.5 141.5v512h-133z" />
<glyph unicode="u" horiz-adv-x="1187" d="M143 369v655h287v-655q0 -100 42 -147.5t112 -47.5q41 0 73.5 19.5t55.5 42.5q25 27 45 61v727h286v-1024h-204l-21 123h-10q-31 -41 -70 -72q-35 -29 -86 -50t-121 -21q-186 0 -287.5 101t-101.5 288z" />
<glyph unicode="v" horiz-adv-x="1024" d="M20 1024h287l185 -635q4 -16 7 -35.5t5 -36.5q2 -20 4 -41h8q2 20 4 41q2 16 5 36t7 36l185 635h287l-338 -1024h-308z" />
<glyph unicode="w" horiz-adv-x="1536" d="M20 1024h287l144 -563q4 -16 7 -35.5t5 -36.5q2 -20 4 -41h8q2 20 4 41q2 16 5 35.5t8 36.5l133 563h286l133 -563q4 -16 7.5 -35.5t5.5 -36.5q2 -20 4 -41h8q2 20 4 41q2 16 5 35.5t7 36.5l144 563h287l-277 -1024h-287l-164 604q-4 16 -7 35.5t-5 36.5q-2 20 -4 41h-8 q-2 -20 -4 -41q-2 -16 -5 -35.5t-7 -36.5l-164 -604h-287z" />
<glyph unicode="x" horiz-adv-x="1003" d="M20 0l308 522l-297 502h297l143 -266q8 -16 13 -31.5t10 -26.5q4 -14 4 -24h8q0 10 4 24q4 10 8 25.5t14 32.5l144 266h297l-297 -502l307 -522h-297l-154 276q-10 16 -14 29.5t-8 26.5q-4 12 -4 26h-8q0 -14 -4 -26q-6 -20 -23 -56l-154 -276h-297z" />
<glyph unicode="y" horiz-adv-x="1034" d="M20 1024h287l205 -666q4 -16 7 -35.5t5 -35.5q2 -20 4 -41h9q2 20 4 41q2 16 5 35.5t7 35.5l174 666h287l-338 -1126q-47 -154 -139.5 -241t-239.5 -87q-47 0 -88 9t-72 22q-37 12 -65 30l71 174h21q14 -16 33 -26q16 -10 36.5 -17.5t42.5 -7.5q96 0 136 144l28 102h-82z " />
<glyph unicode="z" horiz-adv-x="962" d="M72 0v195l481 645h-481v184h809v-195l-482 -645h492v-184h-819z" />
<glyph unicode="{" horiz-adv-x="686" d="M41 481v185q86 0 120 36.5t34 137.5v348q0 70 23.5 126t72.5 96t123.5 62.5t179.5 22.5h72v-184h-72q-47 0 -80 -35t-33 -88v-348q0 -92 -28.5 -145.5t-63.5 -80.5q-41 -33 -92 -41q51 -10 92 -41q35 -29 63.5 -81t28.5 -144v-348q0 -53 33 -88t80 -35h72v-184h-72 q-207 0 -303 84t-96 223v348q0 100 -34 137t-120 37z" />
<glyph unicode="|" horiz-adv-x="634" d="M174 -410v1844h287v-1844h-287z" />
<glyph unicode="}" horiz-adv-x="686" d="M20 -164h72q47 0 80 35t33 88v348q0 92 28.5 144.5t63.5 80.5q39 31 92 41q-53 8 -92 41q-35 27 -63.5 80.5t-28.5 145.5v348q0 53 -33 88t-80 35h-72v184h72q104 0 179 -22.5t124 -62.5t73 -96.5t24 -125.5v-348q0 -100 33.5 -137t119.5 -37v-185q-86 0 -119.5 -36.5 t-33.5 -137.5v-348q0 -139 -96.5 -223t-303.5 -84h-72v184z" />
<glyph unicode="~" horiz-adv-x="1019" d="M41 614q14 43 42 85t64.5 76t78.5 54.5t89 20.5q70 0 117 -22.5t84 -49t71 -49t77 -22.5q31 0 57.5 19t44.5 42t28 42l11 19h18l156 -133q-16 -43 -43 -85t-63.5 -75.5t-79.5 -54t-88 -20.5q-70 0 -117 22.5t-84 49t-71 49t-77 22.5q-31 0 -57.5 -19.5t-44.5 -42 t-28 -42.5l-11 -19h-18z" />
<glyph unicode="&#xa1;" horiz-adv-x="593" d="M133 -410l41 1024h246l41 -1024h-328zM143 891q0 61 46.5 107t107.5 46t107.5 -46t46.5 -107t-46.5 -107.5t-107.5 -46.5t-107.5 46t-46.5 108z" />
<glyph unicode="&#xa2;" horiz-adv-x="972" d="M82 512q0 223 88 348t250 164v123h266v-113q49 -12 91 -27.5t71 -29.5q35 -16 63 -35l-92 -164h-20q-25 23 -58 41q-29 16 -68.5 28.5t-88.5 12.5t-89 -17.5t-68 -57.5t-43 -106.5t-15 -166.5t15 -166.5t45 -106.5t74 -57.5t101 -17.5q49 0 89 12t69 29q33 18 57 41h21 l92 -164q-33 -20 -70 -39q-33 -16 -78 -31.5t-98 -23.5v-131h-266v143q-170 39 -254 164t-84 348z" />
<glyph unicode="&#xa3;" horiz-adv-x="1034" d="M72 0v184q41 27 75 70q29 37 53.5 94.5t24.5 143.5v163h-112v185h112v266q0 74 28 137.5t80 110.5t126 73.5t166 26.5q80 0 146.5 -17.5t113.5 -39.5q55 -25 98 -56l-92 -163h-21q-29 25 -63 45q-29 16 -71 31.5t-91 15.5q-61 0 -97 -43t-36 -121v-266h256v-185h-256 v-163q0 -86 -24.5 -143.5t-53.5 -94.5q-35 -43 -76 -70h656v-184h-942z" />
<glyph unicode="&#xa4;" horiz-adv-x="1228" d="M41 317v154h143v92h-143v154h143v717h410q137 0 241.5 -33t173 -92.5t103.5 -142.5t35 -183q0 -193 -131 -306.5t-422 -113.5h-123v-92h492v-154h-492v-317h-287v317h-143zM471 717h123q266 0 266 266t-266 266h-123v-532z" />
<glyph unicode="&#xa5;" horiz-adv-x="1167" d="M0 1434h297l256 -605q6 -16 11 -31.5t9 -29.5q4 -16 7 -31h8q2 14 6 31q4 14 8 29.5t12 31.5l256 605h297l-297 -646h144v-174h-215l-41 -92h256v-174h-287v-348h-287v348h-286v174h256l-41 92h-215v174h143z" />
<glyph unicode="&#xa6;" horiz-adv-x="634" d="M174 389h287v-799h-287v799zM174 635v799h287v-799h-287z" />
<glyph unicode="&#xa7;" d="M82 532q0 86 26.5 142.5t59.5 91.5q37 39 88 63q-43 23 -78 60q-29 31 -52.5 79t-23.5 117q0 80 29 147.5t85 117t141 77t196 27.5q88 0 161.5 -17.5t127.5 -39.5q61 -25 110 -56l-92 -163h-20q-33 25 -72 45q-35 16 -84 31.5t-111 15.5q-86 0 -135 -47t-49 -117 q0 -61 47 -101t118 -72t152.5 -64.5t152.5 -81t118 -119t47 -176.5q0 -86 -27.5 -142.5t-60.5 -91.5q-37 -41 -86 -63q41 -23 76 -60q29 -31 53.5 -79t24.5 -117q0 -80 -30 -147.5t-90.5 -117t-152.5 -77t-219 -27.5q-86 0 -155.5 17.5t-123.5 39.5q-61 25 -110 58l92 163 h21q31 -27 69 -47q35 -18 81 -32.5t106 -14.5q117 0 171 47t54 117q0 61 -47 101t-118 72t-153 64.5t-152.5 81t-117.5 118t-47 177.5zM358 553q0 -61 42 -106.5t96 -73.5q61 -35 139 -56q31 8 55 29q23 16 40.5 49t17.5 86q0 61 -43 105.5t-97 72.5q-61 35 -137 58 q-33 -8 -57 -29q-23 -16 -39.5 -49t-16.5 -86z" />
<glyph unicode="&#xa8;" horiz-adv-x="727" d="M20 1311q0 57 43.5 100t100.5 43t100 -43t43 -100t-43 -100.5t-100 -43.5t-100.5 43t-43.5 101zM420 1311q0 57 43 100t100 43t100.5 -43t43.5 -100t-43 -100.5t-101 -43.5q-57 0 -100 43t-43 101z" />
<glyph unicode="&#xa9;" horiz-adv-x="1863" d="M82 717q0 166 63.5 311.5t177 254t269.5 171t340 62.5t339.5 -62.5t269.5 -171t177.5 -254t63.5 -311.5t-63.5 -311.5t-177.5 -254t-269.5 -171t-339.5 -62.5t-340 62.5t-269.5 171t-177 254t-63.5 311.5zM328 717q0 -135 45 -248t126 -193.5t191.5 -127t241.5 -46.5 t241.5 46.5t191.5 127t126 193.5t45 248t-45 247.5t-126 193.5t-191.5 127t-241.5 46t-241.5 -46t-191.5 -127t-126 -193.5t-45 -247.5zM543 717q0 106 30.5 192t86 145.5t130 91.5t162.5 32q66 0 123.5 -16.5t98.5 -35.5q49 -23 86 -51l-82 -133h-19q-27 18 -55 35 q-27 14 -59.5 25.5t-71.5 11.5q-35 0 -68 -17.5t-59.5 -54.5t-42 -93t-15.5 -132q0 -154 59.5 -225.5t145.5 -71.5q39 0 72 10t59 25q29 16 56 37h18l82 -134q-37 -29 -86 -51q-41 -20 -98.5 -35.5t-122.5 -15.5q-96 0 -175 31.5t-136.5 91t-88 144.5t-30.5 194z" />
<glyph unicode="&#xaa;" horiz-adv-x="778" d="M51 932q0 100 76 162.5t252 62.5h82v31q0 113 -123 112q-29 0 -54.5 -10t-45.5 -20q-23 -14 -45 -31h-21l-74 123q35 25 78 45q37 16 89 31.5t114 15.5q170 0 249 -71.5t79 -194.5v-451h-193l-12 72h-10q-18 -27 -48 -47q-25 -16 -61.5 -30.5t-85.5 -14.5 q-117 0 -181.5 61.5t-64.5 153.5zM287 942q0 -61 82 -61q18 0 35.5 7t29.5 17q14 10 27 27v72h-82q-92 0 -92 -62z" />
<glyph unicode="&#xab;" horiz-adv-x="1064" d="M20 512l461 522l166 -153l-319 -369l319 -369l-166 -153zM481 512l379 430l164 -154l-236 -276l236 -276l-164 -154z" />
<glyph unicode="&#xac;" horiz-adv-x="1024" d="M72 655v205h880v-389h-225v184h-655z" />
<glyph unicode="&#xad;" horiz-adv-x="942" d="M72 573v205h798v-205h-798z" />
<glyph unicode="&#xae;" horiz-adv-x="1863" d="M82 717q0 166 63.5 311.5t177 254t269.5 171t340 62.5t339.5 -62.5t269.5 -171t177.5 -254t63.5 -311.5t-63.5 -311.5t-177.5 -254t-269.5 -171t-339.5 -62.5t-340 62.5t-269.5 171t-177 254t-63.5 311.5zM328 717q0 -135 45 -248t126 -193.5t191.5 -127t241.5 -46.5 t241.5 46.5t191.5 127t126 193.5t45 248t-45 247.5t-126 193.5t-191.5 127t-241.5 46t-241.5 -46t-191.5 -127t-126 -193.5t-45 -247.5zM594 276v881h328q201 0 295 -83t94 -214q0 -109 -51.5 -171t-112.5 -85l194 -328h-266l-155 287h-80v-287h-246zM840 727h82 q78 0 112.5 36t34.5 97t-35 97t-112 36h-82v-266z" />
<glyph unicode="&#xaf;" horiz-adv-x="634" d="M20 1167v185h594v-185h-594z" />
<glyph unicode="&#xb0;" horiz-adv-x="901" d="M72 1106q0 76 25.5 140.5t74.5 110.5t120 71.5t159 25.5t158.5 -25.5t119.5 -71.5t74.5 -110.5t25.5 -140.5q0 -78 -25.5 -141.5t-74.5 -109.5t-119.5 -71.5t-158.5 -25.5t-159 25.5t-120 71.5t-74.5 109.5t-25.5 141.5zM307 1106q0 -92 41 -138t103 -46q61 0 102 46 t41 138t-41 138t-102 46t-102.5 -46t-41.5 -138z" />
<glyph unicode="&#xb1;" horiz-adv-x="1024" d="M72 154v204h338v256h-338v205h338v338h204v-338h338v-205h-338v-256h338v-204h-880z" />
<glyph unicode="&#xb2;" horiz-adv-x="727" d="M72 737v123q0 63 24.5 108.5t62.5 76t82 52t81.5 40t62.5 37t25 45.5q0 31 -22.5 51t-70.5 20q-29 0 -54 -10t-46 -20q-23 -14 -45 -31h-20l-74 133q35 25 78 45q37 16 89 31.5t113 15.5q147 0 222 -67.5t75 -167.5q0 -53 -24.5 -91t-62.5 -65t-82 -45.5t-81.5 -35.5 t-62.5 -36.5t-25 -44.5h338v-164h-583z" />
<glyph unicode="&#xb3;" horiz-adv-x="739" d="M72 809l73 133h21q23 -18 45 -31q20 -12 46 -21t54 -9q45 0 67.5 20.5t22.5 50.5q0 31 -23.5 51.5t-76.5 20.5h-135v123l215 123h-277v164h512v-174l-194 -103q117 -8 181.5 -68.5t64.5 -146.5q0 -43 -20.5 -83t-60.5 -71.5t-99.5 -51t-135.5 -19.5q-61 0 -113.5 14 t-88.5 31q-43 20 -78 47z" />
<glyph unicode="&#xb4;" horiz-adv-x="409" d="M20 1126l93 308h276l-205 -308h-164z" />
<glyph unicode="&#xb5;" horiz-adv-x="1187" d="M143 -410v1434h287v-655q0 -100 42 -147.5t112 -47.5q41 0 73.5 19.5t55.5 42.5q25 27 45 61v727h286v-1024h-204l-21 123h-10q-23 -41 -57 -72q-29 -29 -73 -50t-106 -21q-31 0 -57.5 9t-44.5 21q-23 12 -41 31v-369l-82 -82h-205z" />
<glyph unicode="&#xb6;" horiz-adv-x="1187" d="M20 973q0 104 33 189t90.5 145.5t136 93.5t171.5 33h716v-185h-123v-1659h-245v1659h-103v-1659h-245v922q-92 0 -171 33t-136.5 93t-90.5 145t-33 190z" />
<glyph unicode="&#xb7;" horiz-adv-x="614" d="M154 717q0 61 46 107t107 46t107.5 -46t46.5 -107t-46 -107.5t-108 -46.5q-61 0 -107 46t-46 108z" />
<glyph unicode="&#xb8;" horiz-adv-x="440" d="M20 -358l43 102h19q-2 0 25.5 -15.5t66.5 -15.5q31 0 51.5 15.5t20.5 46.5t-20.5 46t-51.5 15h-102v205h153v-92q86 0 140.5 -52.5t54.5 -121.5q0 -70 -58.5 -122t-166.5 -52q-39 0 -71 6t-54 14q-27 8 -50 21z" />
<glyph unicode="&#xb9;" horiz-adv-x="645" d="M41 1270l195 164h225v-533h143v-164h-532v164h143v318l-102 -52z" />
<glyph unicode="&#xba;" horiz-adv-x="860" d="M72 1085q0 80 27.5 147.5t74.5 117t112.5 77t143.5 27.5q76 0 142.5 -27.5t113.5 -77t74.5 -117t27.5 -147.5t-27.5 -147.5t-74.5 -116.5t-113.5 -76.5t-142.5 -27.5q-78 0 -143.5 27.5t-112.5 76.5t-74.5 117t-27.5 147zM317 1085q0 -115 33 -159.5t80 -44.5q45 0 79 45 t34 159q0 115 -34 160t-79 45q-47 0 -80 -45t-33 -160z" />
<glyph unicode="&#xbb;" horiz-adv-x="1064" d="M41 236l235 276l-235 276l164 154l379 -430l-379 -430zM418 143l319 369l-319 369l166 153l460 -522l-460 -522z" />
<glyph unicode="&#xbc;" horiz-adv-x="1617" d="M51 1270l215 164h205v-533h143v-164h-532v164h143v318l-102 -52zM215 0l963 1434h307l-963 -1434h-307zM870 123v164l349 409h235v-409h92v-164h-92v-123h-246v123h-338zM1065 287h143v133q0 8 1 18.5t3 20.5t7 22h-9q-2 -12 -8 -22q-4 -10 -10 -21.5t-14 -19.5z" />
<glyph unicode="&#xbd;" horiz-adv-x="1648" d="M51 1270l215 164h205v-533h143v-164h-532v164h143v318l-102 -52zM215 0l963 1434h307l-963 -1434h-307zM973 0v123q0 63 24.5 108t62.5 76t82 52.5t82 40t62.5 37t24.5 44.5q0 31 -22.5 51.5t-69.5 20.5q-29 0 -54.5 -10.5t-46.5 -20.5q-23 -14 -45 -30h-20l-74 133 q35 25 78 45q37 16 89.5 31.5t113.5 15.5q147 0 221.5 -67.5t74.5 -168.5q0 -53 -24.5 -91t-62 -64.5t-82 -45t-82 -36t-62 -37t-24.5 -43.5h337v-164h-583z" />
<glyph unicode="&#xbe;" horiz-adv-x="1589" d="M51 809l74 133h20q23 -18 45 -31q20 -12 46 -21t55 -9q45 0 67.5 20.5t22.5 50.5q0 31 -23.5 51.5t-76.5 20.5h-136v123l215 123h-276v164h512v-174l-195 -103q117 -8 181.5 -68.5t64.5 -146.5q0 -43 -20.5 -83t-60.5 -71.5t-99 -51t-135 -19.5q-61 0 -113.5 14t-89.5 31 q-43 20 -78 47zM186 0l963 1434h307l-962 -1434h-308zM842 123v164l348 409h235v-409h93v-164h-93v-123h-245v123h-338zM1036 287h144v133q0 8 1 18.5t3 20.5t6 22h-8q-2 -12 -8 -22q-4 -10 -10.5 -21.5t-14.5 -19.5z" />
<glyph unicode="&#xbf;" horiz-adv-x="1003" d="M72 -41q0 92 29.5 156.5t73.5 111.5t96.5 83t96.5 71t73.5 75t29.5 97v61h266v-61q0 -88 -27.5 -148.5t-70.5 -106.5t-91 -83t-91 -76t-71 -87t-28 -113q0 -78 61.5 -131.5t184.5 -53.5q72 0 127 14.5t90 30.5q41 20 70 47h20l93 -163q-45 -33 -107 -58q-53 -23 -131 -39 t-182 -16q-131 0 -227.5 28.5t-160 81t-94 124t-30.5 155.5zM451 891q0 61 46 107t107 46t107.5 -46t46.5 -107t-46.5 -107.5t-107.5 -46.5t-107 46t-46 108z" />
<glyph unicode="&#xc0;" horiz-adv-x="1228" d="M31 0l420 1434h327l420 -1434h-287l-92 328h-409l-93 -328h-286zM31 0zM352 1844h277l92 -308h-164zM461 512h307l-123 430q-8 25 -12 51.5t-8 48.5q-4 27 -7 54h-8l-8 -54q-4 -23 -8 -50t-10 -50z" />
<glyph unicode="&#xc1;" horiz-adv-x="1228" d="M31 0l420 1434h327l420 -1434h-287l-92 328h-409l-93 -328h-286zM31 0zM461 512h307l-123 430q-8 25 -12 51.5t-8 48.5q-4 27 -7 54h-8l-8 -54q-4 -23 -8 -50t-10 -50zM485 1536l93 308h276l-205 -308h-164z" />
<glyph unicode="&#xc2;" horiz-adv-x="1228" d="M31 0l420 1434h327l420 -1434h-287l-92 328h-409l-93 -328h-286zM31 0zM286 1536l226 274h205l225 -274h-195l-133 143l-133 -143h-195zM461 512h307l-123 430q-8 25 -12 51.5t-8 48.5q-4 27 -7 54h-8l-8 -54q-4 -23 -8 -50t-10 -50z" />
<glyph unicode="&#xc3;" horiz-adv-x="1228" d="M31 0l420 1434h327l420 -1434h-287l-92 328h-409l-93 -328h-286zM31 0zM286 1618q4 39 20.5 75.5t42.5 65.5t59.5 46.5t72.5 17.5q43 0 72.5 -14.5t55.5 -32t48.5 -32t48.5 -14.5q18 0 33.5 12.5t27 28t16.5 28.5l5 13h19l114 -61q-4 -39 -20.5 -76t-42 -65.5t-59 -46 t-72.5 -17.5q-43 0 -73 14.5t-55.5 32t-48 31.5t-48.5 14q-18 0 -35 -13t-27 -28.5t-15 -28.5l-5 -12h-19zM461 512h307l-123 430q-8 25 -12 51.5t-8 48.5q-4 27 -7 54h-8l-8 -54q-4 -23 -8 -50t-10 -50z" />
<glyph unicode="&#xc4;" horiz-adv-x="1228" d="M31 0l420 1434h327l420 -1434h-287l-92 328h-409l-93 -328h-286zM31 0zM266 1700q0 57 43.5 100t100.5 43t100 -43t43 -100t-43 -100.5t-100 -43.5t-100.5 43t-43.5 101zM461 512h307l-123 430q-8 25 -12 51.5t-8 48.5q-4 27 -7 54h-8l-8 -54q-4 -23 -8 -50t-10 -50z M666 1700q0 57 43 100t100 43t100.5 -43t43.5 -100t-43 -100.5t-101 -43.5q-57 0 -100 43t-43 101z" />
<glyph unicode="&#xc5;" horiz-adv-x="1228" d="M31 0l420 1434h327l420 -1434h-287l-92 328h-409l-93 -328h-286zM31 0zM389 1741q0 92 62.5 153.5t163.5 61.5q100 0 162.5 -61.5t62.5 -153.5t-62.5 -153.5t-162.5 -61.5t-163 61.5t-63 153.5zM461 512h307l-123 430q-8 25 -12 51.5t-8 48.5q-4 27 -7 54h-8l-8 -54 q-4 -23 -8 -50t-10 -50zM543 1741q0 -39 20.5 -60.5t51.5 -21.5t51 21.5t20 60.5t-20.5 60.5t-50.5 21.5q-31 0 -51.5 -21.5t-20.5 -60.5z" />
<glyph unicode="&#xc6;" horiz-adv-x="1730" d="M-51 0l604 1434h1126v-185h-573v-409h450v-185h-450v-471h573v-184h-860v389h-420l-163 -389h-287zM481 573h338v676h-61z" />
<glyph unicode="&#xc7;" horiz-adv-x="1095" d="M102 0zM102 717q0 197 39 336t111 228t174 131t229 42q88 0 159 -17.5t120 -39.5q57 -25 100 -56l-92 -163h-20q-29 25 -66 45q-33 16 -78 31.5t-102 15.5q-61 0 -113.5 -25.5t-91.5 -89t-60.5 -170t-21.5 -268.5t22.5 -268.5t62.5 -170t96.5 -89t125.5 -25.5 q57 0 102.5 14.5t78.5 30.5q37 20 65 47h21l92 -164q-43 -33 -101 -57q-49 -23 -119.5 -39t-158.5 -16q-135 0 -241.5 41.5t-180.5 131t-113 228.5t-39 336zM481 -358l43 102h19q-2 0 25.5 -15.5t66.5 -15.5q31 0 51.5 15.5t20.5 46.5t-20.5 46t-51.5 15h-102v205h153v-92 q86 0 140.5 -52.5t54.5 -121.5q0 -70 -58.5 -122t-166.5 -52q-39 0 -71 6t-54 14q-27 8 -50 21z" />
<glyph unicode="&#xc8;" horiz-adv-x="1085" d="M174 0v1434h860v-185h-573v-409h450v-185h-450v-471h573v-184h-860zM174 0zM378 1844h277l92 -308h-164z" />
<glyph unicode="&#xc9;" horiz-adv-x="1085" d="M174 0v1434h860v-185h-573v-409h450v-185h-450v-471h573v-184h-860zM174 0zM471 1536l93 308h276l-205 -308h-164z" />
<glyph unicode="&#xca;" horiz-adv-x="1085" d="M174 0v1434h860v-185h-573v-409h450v-185h-450v-471h573v-184h-860zM174 0zM290 1557l226 274h205l225 -274h-195l-133 143l-133 -143h-195z" />
<glyph unicode="&#xcb;" horiz-adv-x="1085" d="M174 0v1434h860v-185h-573v-409h450v-185h-450v-471h573v-184h-860zM174 0zM270 1721q0 57 43.5 100t100.5 43t100 -43t43 -100t-43 -100.5t-100 -43.5t-100.5 43t-43.5 101zM670 1721q0 57 43 100t100 43t100.5 -43t43.5 -100t-43 -100.5t-101 -43.5q-57 0 -100 43 t-43 101z" />
<glyph unicode="&#xcc;" horiz-adv-x="589" d="M30 1844h277l92 -308h-164zM31 0zM151 0v1434h287v-1434h-287z" />
<glyph unicode="&#xcd;" horiz-adv-x="587" d="M156 0v1434h287v-1434h-287zM156 0zM188 1536l93 308h276l-205 -308h-164z" />
<glyph unicode="&#xce;" horiz-adv-x="593" d="M-29 1557l226 274h205l225 -274h-195l-133 143l-133 -143h-195zM0 0zM156 0v1434h287v-1434h-287z" />
<glyph unicode="&#xcf;" horiz-adv-x="634" d="M-29 1721q0 57 43.5 100t100.5 43t100 -43t43 -100t-43 -100.5t-100 -43.5t-100.5 43t-43.5 101zM0 0zM174 0v1434h287v-1434h-287zM371 1721q0 57 43 100t100 43t100.5 -43t43.5 -100t-43 -100.5t-101 -43.5q-57 0 -100 43t-43 101z" />
<glyph unicode="&#xd0;" horiz-adv-x="1269" d="M72 635v205h112v594h348q307 0 471 -174.5t164 -542.5q0 -369 -163.5 -543t-471.5 -174h-348v635h-112zM471 184h61q84 0 150 26t110 87t66.5 163.5t22.5 256.5t-22.5 256t-66.5 163.5t-110 87t-150 25.5h-61v-409h195v-205h-195v-451z" />
<glyph unicode="&#xd1;" horiz-adv-x="1310" d="M156 0v1434h307l359 -799q10 -23 19 -47.5t18 -42.5q8 -23 16 -43h8q-4 20 -6 43q-2 18 -3 42.5t-1 47.5v799h287v-1434h-308l-358 799q-10 23 -19.5 46t-17.5 44q-8 23 -16 43h-8q2 -20 4 -43q2 -20 4 -44t2 -46v-799h-287zM156 0zM327 1618q4 39 20.5 75.5t42.5 65.5 t59.5 46.5t72.5 17.5q43 0 72.5 -14.5t55.5 -32t48.5 -32t48.5 -14.5q18 0 33.5 12.5t27 28t16.5 28.5l5 13h19l114 -61q-4 -39 -20.5 -76t-42 -65.5t-59 -46t-72.5 -17.5q-43 0 -73 14.5t-55.5 32t-48 31.5t-48.5 14q-18 0 -35 -13t-27 -28.5t-15 -28.5l-5 -12h-19z" />
<glyph unicode="&#xd2;" horiz-adv-x="1290" d="M102 0zM102 717q0 197 39 336t110 228t171 131t223 42t223.5 -42t171 -131t109.5 -228t39 -336t-39 -336t-109.5 -228.5t-171 -131t-223.5 -41.5t-223 41.5t-171 131t-110 228.5t-39 336zM389 717q0 -162 21.5 -268.5t56.5 -170t82 -89t96 -25.5t96 25.5t82 89t56.5 170 t21.5 268.5t-21.5 268.5t-56.5 170t-82 89t-96 25.5t-96 -25.5t-82 -89t-56.5 -170t-21.5 -268.5zM403 1844h277l92 -308h-164z" />
<glyph unicode="&#xd3;" horiz-adv-x="1290" d="M102 0zM102 717q0 197 39 336t110 228t171 131t223 42t223.5 -42t171 -131t109.5 -228t39 -336t-39 -336t-109.5 -228.5t-171 -131t-223.5 -41.5t-223 41.5t-171 131t-110 228.5t-39 336zM389 717q0 -162 21.5 -268.5t56.5 -170t82 -89t96 -25.5t96 25.5t82 89t56.5 170 t21.5 268.5t-21.5 268.5t-56.5 170t-82 89t-96 25.5t-96 -25.5t-82 -89t-56.5 -170t-21.5 -268.5zM516 1536l93 308h276l-205 -308h-164z" />
<glyph unicode="&#xd4;" horiz-adv-x="1290" d="M102 0zM102 717q0 197 39 336t110 228t171 131t223 42t223.5 -42t171 -131t109.5 -228t39 -336t-39 -336t-109.5 -228.5t-171 -131t-223.5 -41.5t-223 41.5t-171 131t-110 228.5t-39 336zM317 1557l226 274h205l225 -274h-195l-133 143l-133 -143h-195zM389 717 q0 -162 21.5 -268.5t56.5 -170t82 -89t96 -25.5t96 25.5t82 89t56.5 170t21.5 268.5t-21.5 268.5t-56.5 170t-82 89t-96 25.5t-96 -25.5t-82 -89t-56.5 -170t-21.5 -268.5z" />
<glyph unicode="&#xd5;" horiz-adv-x="1290" d="M102 0zM102 717q0 197 39 336t110 228t171 131t223 42t223.5 -42t171 -131t109.5 -228t39 -336t-39 -336t-109.5 -228.5t-171 -131t-223.5 -41.5t-223 41.5t-171 131t-110 228.5t-39 336zM317 1639q4 39 20.5 75.5t42.5 65.5t59.5 46.5t72.5 17.5q43 0 72.5 -14.5 t55.5 -32t48.5 -32t48.5 -14.5q18 0 33.5 12.5t27 28t16.5 28.5l5 13h19l114 -61q-4 -39 -20.5 -76t-42 -65.5t-59 -46t-72.5 -17.5q-43 0 -73 14.5t-55.5 32t-48 31.5t-48.5 14q-18 0 -35 -13t-27 -28.5t-15 -28.5l-5 -12h-19zM389 717q0 -162 21.5 -268.5t56.5 -170 t82 -89t96 -25.5t96 25.5t82 89t56.5 170t21.5 268.5t-21.5 268.5t-56.5 170t-82 89t-96 25.5t-96 -25.5t-82 -89t-56.5 -170t-21.5 -268.5z" />
<glyph unicode="&#xd6;" horiz-adv-x="1290" d="M102 0zM102 717q0 197 39 336t110 228t171 131t223 42t223.5 -42t171 -131t109.5 -228t39 -336t-39 -336t-109.5 -228.5t-171 -131t-223.5 -41.5t-223 41.5t-171 131t-110 228.5t-39 336zM296 1721q0 57 43.5 100t100.5 43t100 -43t43 -100t-43 -100.5t-100 -43.5 t-100.5 43t-43.5 101zM389 717q0 -162 21.5 -268.5t56.5 -170t82 -89t96 -25.5t96 25.5t82 89t56.5 170t21.5 268.5t-21.5 268.5t-56.5 170t-82 89t-96 25.5t-96 -25.5t-82 -89t-56.5 -170t-21.5 -268.5zM696 1721q0 57 43 100t100 43t100.5 -43t43.5 -100t-43 -100.5 t-101 -43.5q-57 0 -100 43t-43 101z" />
<glyph unicode="&#xd7;" horiz-adv-x="901" d="M72 440l235 236l-235 235l143 144l236 -236l235 236l143 -144l-235 -235l235 -236l-143 -143l-235 235l-236 -235z" />
<glyph unicode="&#xd8;" horiz-adv-x="1290" d="M102 0l117 197q-57 90 -87 218t-30 302q0 197 39 336t110 228t171 131t223 42q162 0 277 -70l30 50h236l-117 -197q55 -90 86 -218t31 -302q0 -197 -39 -336t-109.5 -228.5t-171 -131t-223.5 -41.5q-160 0 -278 69l-29 -49h-236zM389 717q0 -125 12 -213l402 680 q-35 47 -75 66.5t-83 19.5q-49 0 -96 -25.5t-82 -89t-56.5 -170t-21.5 -268.5zM485 250q35 -47 75 -66.5t85 -19.5q49 0 96 25.5t82 89t56.5 170t21.5 268.5q0 121 -12 211z" />
<glyph unicode="&#xd9;" horiz-adv-x="1310" d="M154 0zM154 471v963h286v-963q0 -162 61.5 -234.5t153.5 -72.5t153.5 72.5t61.5 234.5v963h287v-963q0 -231 -131 -361t-371 -130t-370.5 130t-130.5 361zM413 1803h277l92 -308h-164z" />
<glyph unicode="&#xda;" horiz-adv-x="1310" d="M154 0zM154 471v963h286v-963q0 -162 61.5 -234.5t153.5 -72.5t153.5 72.5t61.5 234.5v963h287v-963q0 -231 -131 -361t-371 -130t-370.5 130t-130.5 361zM546 1495l93 308h276l-205 -308h-164z" />
<glyph unicode="&#xdb;" horiz-adv-x="1310" d="M154 0zM154 471v963h286v-963q0 -162 61.5 -234.5t153.5 -72.5t153.5 72.5t61.5 234.5v963h287v-963q0 -231 -131 -361t-371 -130t-370.5 130t-130.5 361zM327 1557l226 274h205l225 -274h-195l-133 143l-133 -143h-195z" />
<glyph unicode="&#xdc;" horiz-adv-x="1310" d="M154 0zM154 471v963h286v-963q0 -162 61.5 -234.5t153.5 -72.5t153.5 72.5t61.5 234.5v963h287v-963q0 -231 -131 -361t-371 -130t-370.5 130t-130.5 361zM307 1721q0 57 43.5 100t100.5 43t100 -43t43 -100t-43 -100.5t-100 -43.5t-100.5 43t-43.5 101zM707 1721 q0 57 43 100t100 43t100.5 -43t43.5 -100t-43 -100.5t-101 -43.5q-57 0 -100 43t-43 101z" />
<glyph unicode="&#xdd;" horiz-adv-x="1167" d="M0 0zM0 1434h297l256 -605q6 -16 11 -31.5t9 -29.5q4 -16 7 -31h8q2 14 6 31q4 14 8 29.5t12 31.5l256 605h297l-440 -963v-471h-287v471zM475 1495l93 308h276l-205 -308h-164z" />
<glyph unicode="&#xde;" horiz-adv-x="1320" d="M174 -41v1516h287v-144h143q150 0 267.5 -43t199.5 -123t125 -193.5t43 -254.5t-43 -255t-125 -194t-199.5 -123t-267.5 -43h-143v-143h-287zM461 287h143q154 0 251 107.5t97 322.5t-97 322.5t-251 107.5h-143v-860z" />
<glyph unicode="&#xdf;" horiz-adv-x="1269" d="M41 840v184h113v102q0 66 27.5 125.5t77.5 104.5t120 71.5t153 26.5q100 0 178 -26.5t131.5 -69.5t82 -98.5t28.5 -112.5q0 -47 -16 -83t-34.5 -68.5t-35 -64.5t-16.5 -71q0 -47 27.5 -81t70.5 -65.5t91 -63.5t91.5 -73.5t71 -97t27.5 -131.5q0 -80 -29 -147.5 t-84 -116.5t-138 -76.5t-190 -27.5q-53 0 -98 9t-78 21q-37 12 -69 31l71 174h21q14 -16 35 -27q16 -10 41.5 -17t56.5 -7q174 0 174 184q0 51 -26.5 89t-66.5 71t-86 65.5t-86 72.5t-66.5 91t-26.5 123q0 45 12 82t27.5 69.5t29 64.5t13.5 71q0 53 -33 88t-80 35t-80 -37 t-33 -107v-1126h-286v840h-113z" />
<glyph unicode="&#xe0;" d="M82 0zM82 297q0 74 25.5 134.5t82 103.5t143.5 66.5t210 23.5h143v30q0 109 -47 157t-147 48q-51 0 -90.5 -12t-67.5 -29q-33 -18 -58 -41h-20l-92 164q43 29 96 51q47 18 110.5 34.5t141.5 16.5q111 0 197 -28.5t144 -80.5t89 -124t31 -156v-655h-205l-20 123h-11 q-31 -41 -69 -72q-35 -29 -86.5 -50t-120.5 -21q-184 0 -281.5 89t-97.5 228zM290 1434h277l92 -308h-164zM369 297q0 -53 36.5 -88t106.5 -35q39 0 70.5 19.5t54.5 42.5q27 27 49 61v143h-143q-92 0 -133 -36.5t-41 -106.5z" />
<glyph unicode="&#xe1;" d="M82 0zM82 297q0 74 25.5 134.5t82 103.5t143.5 66.5t210 23.5h143v30q0 109 -47 157t-147 48q-51 0 -90.5 -12t-67.5 -29q-33 -18 -58 -41h-20l-92 164q43 29 96 51q47 18 110.5 34.5t141.5 16.5q111 0 197 -28.5t144 -80.5t89 -124t31 -156v-655h-205l-20 123h-11 q-31 -41 -69 -72q-35 -29 -86.5 -50t-120.5 -21q-184 0 -281.5 89t-97.5 228zM369 297q0 -53 36.5 -88t106.5 -35q39 0 70.5 19.5t54.5 42.5q27 27 49 61v143h-143q-92 0 -133 -36.5t-41 -106.5zM423 1126l93 308h276l-205 -308h-164z" />
<glyph unicode="&#xe2;" d="M82 0zM82 297q0 74 25.5 134.5t82 103.5t143.5 66.5t210 23.5h143v30q0 109 -47 157t-147 48q-51 0 -90.5 -12t-67.5 -29q-33 -18 -58 -41h-20l-92 164q43 29 96 51q47 18 110.5 34.5t141.5 16.5q111 0 197 -28.5t144 -80.5t89 -124t31 -156v-655h-205l-20 123h-11 q-31 -41 -69 -72q-35 -29 -86.5 -50t-120.5 -21q-184 0 -281.5 89t-97.5 228zM225 1147l226 274h205l225 -274h-195l-133 143l-133 -143h-195zM369 297q0 -53 36.5 -88t106.5 -35q39 0 70.5 19.5t54.5 42.5q27 27 49 61v143h-143q-92 0 -133 -36.5t-41 -106.5z" />
<glyph unicode="&#xe3;" d="M82 0zM82 297q0 74 25.5 134.5t82 103.5t143.5 66.5t210 23.5h143v30q0 109 -47 157t-147 48q-51 0 -90.5 -12t-67.5 -29q-33 -18 -58 -41h-20l-92 164q43 29 96 51q47 18 110.5 34.5t141.5 16.5q111 0 197 -28.5t144 -80.5t89 -124t31 -156v-655h-205l-20 123h-11 q-31 -41 -69 -72q-35 -29 -86.5 -50t-120.5 -21q-184 0 -281.5 89t-97.5 228zM225 1231q4 39 20.5 75.5t42.5 65.5t59.5 46.5t72.5 17.5q43 0 72.5 -14.5t55.5 -32t48.5 -32t48.5 -14.5q18 0 33.5 12.5t27 28t16.5 28.5l5 13h19l114 -61q-4 -39 -20.5 -76t-42 -65.5t-59 -46 t-72.5 -17.5q-43 0 -73 14.5t-55.5 32t-48 31.5t-48.5 14q-18 0 -35 -13t-27 -28.5t-15 -28.5l-5 -12h-19zM369 297q0 -53 36.5 -88t106.5 -35q39 0 70.5 19.5t54.5 42.5q27 27 49 61v143h-143q-92 0 -133 -36.5t-41 -106.5z" />
<glyph unicode="&#xe4;" d="M82 0zM82 297q0 74 25.5 134.5t82 103.5t143.5 66.5t210 23.5h143v30q0 109 -47 157t-147 48q-51 0 -90.5 -12t-67.5 -29q-33 -18 -58 -41h-20l-92 164q43 29 96 51q47 18 110.5 34.5t141.5 16.5q111 0 197 -28.5t144 -80.5t89 -124t31 -156v-655h-205l-20 123h-11 q-31 -41 -69 -72q-35 -29 -86.5 -50t-120.5 -21q-184 0 -281.5 89t-97.5 228zM204 1311q0 57 43.5 100t100.5 43t100 -43t43 -100t-43 -100.5t-100 -43.5t-100.5 43t-43.5 101zM369 297q0 -53 36.5 -88t106.5 -35q39 0 70.5 19.5t54.5 42.5q27 27 49 61v143h-143 q-92 0 -133 -36.5t-41 -106.5zM604 1311q0 57 43 100t100 43t100.5 -43t43.5 -100t-43 -100.5t-101 -43.5q-57 0 -100 43t-43 101z" />
<glyph unicode="&#xe5;" horiz-adv-x="1110" d="M82 0zM82 297q0 74 25.5 134.5t82 103.5t143.5 66.5t210 23.5h143v30q0 109 -47 157t-147 48q-51 0 -90.5 -12t-67.5 -29q-33 -18 -58 -41h-20l-92 164q43 29 96 51q47 18 110.5 34.5t141.5 16.5q111 0 197 -28.5t144 -80.5t89 -124t31 -156v-655h-205l-20 123h-11 q-31 -41 -69 -72q-35 -29 -86.5 -50t-120.5 -21q-184 0 -281.5 89t-97.5 228zM327 1351q0 92 62.5 153.5t163.5 61.5q100 0 162.5 -61.5t62.5 -153.5t-62.5 -153.5t-162.5 -61.5t-163 61.5t-63 153.5zM369 297q0 -53 36.5 -88t106.5 -35q39 0 70.5 19.5t54.5 42.5 q27 27 49 61v143h-143q-92 0 -133 -36.5t-41 -106.5zM481 1351q0 -39 20.5 -60.5t51.5 -21.5t51 21.5t20 60.5t-20.5 60.5t-50.5 21.5q-31 0 -51.5 -21.5t-20.5 -60.5z" />
<glyph unicode="&#xe6;" horiz-adv-x="1669" d="M82 297q0 74 25.5 134.5t82 103.5t143.5 66.5t210 23.5h143v30q0 109 -47 157t-147 48q-51 0 -90.5 -12t-67.5 -29q-33 -18 -58 -41h-20l-92 164q43 29 96 51q47 18 110.5 34.5t141.5 16.5q131 0 206 -37.5t122 -84.5q47 47 117.5 84.5t179.5 37.5q207 0 328.5 -129 t121.5 -383v-51l-61 -61h-553q0 -256 246 -256q49 0 89 12t68 29q33 18 58 41h20l92 -164q-45 -29 -98 -51q-47 -20 -109.5 -35.5t-140.5 -15.5q-74 0 -133 13t-106.5 34.5t-82 48t-57.5 51.5q-23 -25 -55.5 -51.5t-77.5 -48t-100.5 -34.5t-124.5 -13q-184 0 -281.5 89 t-97.5 228zM369 297q0 -53 36.5 -88t106.5 -35q39 0 70.5 19.5t54.5 42.5q27 27 49 61v143h-143q-92 0 -133 -36.5t-41 -106.5zM973 604h327q0 131 -51 193.5t-112 62.5t-112.5 -62.5t-51.5 -193.5z" />
<glyph unicode="&#xe7;" horiz-adv-x="972" d="M82 0zM82 512q0 270 125 401t356 131q78 0 140.5 -16t109.5 -35q53 -23 98 -51l-92 -164h-20q-25 23 -58 41q-29 16 -68.5 28.5t-88.5 12.5t-89 -17.5t-68 -57.5t-43 -106.5t-15 -166.5t15 -166.5t45 -106.5t74 -57.5t101 -17.5q49 0 89 12t69 29q33 18 57 41h21l92 -164 q-45 -29 -98 -51q-47 -20 -109.5 -35.5t-140.5 -15.5q-248 0 -375 131t-127 401zM393 -358l43 102h19q-2 0 25.5 -15.5t66.5 -15.5q31 0 51.5 15.5t20.5 46.5t-20.5 46t-51.5 15h-102v205h153v-92q86 0 140.5 -52.5t54.5 -121.5q0 -70 -58.5 -122t-166.5 -52q-39 0 -71 6 t-54 14q-27 8 -50 21z" />
<glyph unicode="&#xe8;" horiz-adv-x="1064" d="M82 0zM82 512q0 268 122 400t328 132q207 0 329 -129t122 -383v-51l-61 -61h-553q0 -256 245 -256q49 0 89 12t69 29q33 18 57 41h21l92 -164q-45 -29 -98 -51q-47 -20 -109.5 -35.5t-140.5 -15.5q-512 0 -512 532zM276 1434h277l92 -308h-164zM369 604h327 q0 131 -51.5 193.5t-112.5 62.5t-112 -62.5t-51 -193.5z" />
<glyph unicode="&#xe9;" horiz-adv-x="1064" d="M82 0zM82 512q0 268 122 400t328 132q207 0 329 -129t122 -383v-51l-61 -61h-553q0 -256 245 -256q49 0 89 12t69 29q33 18 57 41h21l92 -164q-45 -29 -98 -51q-47 -20 -109.5 -35.5t-140.5 -15.5q-512 0 -512 532zM369 604h327q0 131 -51.5 193.5t-112.5 62.5 t-112 -62.5t-51 -193.5zM430 1126l93 308h276l-205 -308h-164z" />
<glyph unicode="&#xea;" horiz-adv-x="1064" d="M82 0zM82 512q0 268 122 400t328 132q207 0 329 -129t122 -383v-51l-61 -61h-553q0 -256 245 -256q49 0 89 12t69 29q33 18 57 41h21l92 -164q-45 -29 -98 -51q-47 -20 -109.5 -35.5t-140.5 -15.5q-512 0 -512 532zM208 1147l226 274h205l225 -274h-195l-133 143 l-133 -143h-195zM369 604h327q0 131 -51.5 193.5t-112.5 62.5t-112 -62.5t-51 -193.5z" />
<glyph unicode="&#xeb;" horiz-adv-x="1064" d="M82 0zM82 512q0 268 122 400t328 132q207 0 329 -129t122 -383v-51l-61 -61h-553q0 -256 245 -256q49 0 89 12t69 29q33 18 57 41h21l92 -164q-45 -29 -98 -51q-47 -20 -109.5 -35.5t-140.5 -15.5q-512 0 -512 532zM188 1311q0 57 43.5 100t100.5 43t100 -43t43 -100 t-43 -100.5t-100 -43.5t-100.5 43t-43.5 101zM369 604h327q0 131 -51.5 193.5t-112.5 62.5t-112 -62.5t-51 -193.5zM588 1311q0 57 43 100t100 43t100.5 -43t43.5 -100t-43 -100.5t-101 -43.5q-57 0 -100 43t-43 101z" />
<glyph unicode="&#xec;" horiz-adv-x="579" d="M31 1434h276l92 -308h-163zM150 0v1024h286v-1024h-286z" />
<glyph unicode="&#xed;" horiz-adv-x="577" d="M143 0v1024h287v-1024h-287zM178 1126l92 308h277l-205 -308h-164z" />
<glyph unicode="&#xee;" horiz-adv-x="593" d="M-31 1147l226 274h204l226 -274h-195l-133 143l-133 -143h-195zM154 0v1024h286v-1024h-286z" />
<glyph unicode="&#xef;" horiz-adv-x="614" d="M-41 1311q0 57 43 100t100 43t100.5 -43t43.5 -100t-43 -100.5t-101 -43.5q-57 0 -100 43t-43 101zM164 0v1024h287v-1024h-287zM358 1311q0 57 43.5 100t100.5 43t100 -43t43 -100t-43 -100.5t-100 -43.5t-100.5 43t-43.5 101z" />
<glyph unicode="&#xf0;" horiz-adv-x="1116" d="M72 461q0 115 30.5 205t87 151.5t133 93t169.5 31.5q92 0 165.5 -35t120.5 -88q0 201 -135 305l-49 -120l-174 71l53 129q-16 4 -31.5 8.5t-31.5 8.5l-144 28l41 174l133 -30q27 -6 51.5 -12.5t49.5 -14.5l53 129l174 -72l-55 -131q156 -86 228.5 -235.5t72.5 -390.5 v-205q0 -231 -124 -356t-347 -125t-347 124.5t-124 356.5zM358 461q0 -80 14.5 -137.5t39 -92t58.5 -51t73 -16.5t72.5 16.5t58 51t39 92t14.5 137.5q0 154 -53 220.5t-131 66.5t-131.5 -67t-53.5 -220z" />
<glyph unicode="&#xf1;" horiz-adv-x="1177" d="M143 0v1024h205l21 -123h10q29 39 70 72q35 27 86 49t120 22q186 0 287.5 -101t101.5 -288v-655h-286v655q0 100 -42 147.5t-112 47.5q-43 0 -74.5 -19.5t-54.5 -42.5q-25 -27 -45 -61v-727h-287zM143 0zM280 1252q4 39 20.5 75.5t42.5 65.5t59.5 46.5t72.5 17.5 q43 0 72.5 -14.5t55.5 -32t48.5 -32t48.5 -14.5q18 0 33.5 12.5t27 28t16.5 28.5l5 13h19l114 -61q-4 -39 -20.5 -76t-42 -65.5t-59 -46t-72.5 -17.5q-43 0 -73 14.5t-55.5 32t-48 31.5t-48.5 14q-18 0 -35 -13t-27 -28.5t-15 -28.5l-5 -12h-19z" />
<glyph unicode="&#xf2;" d="M82 0zM82 512q0 270 124 401t347 131t347 -131t124 -401t-124 -401t-347 -131t-347 131t-124 401zM290 1434h277l92 -308h-164zM369 512q0 -100 14 -166.5t38.5 -106.5t58.5 -57.5t73 -17.5t72.5 17.5t58.5 57.5t39 106.5t14 166.5t-14 166.5t-39 106.5t-58.5 57.5 t-72.5 17.5t-73 -17.5t-58.5 -57.5t-38.5 -106.5t-14 -166.5z" />
<glyph unicode="&#xf3;" d="M82 0zM82 512q0 270 124 401t347 131t347 -131t124 -401t-124 -401t-347 -131t-347 131t-124 401zM369 512q0 -100 14 -166.5t38.5 -106.5t58.5 -57.5t73 -17.5t72.5 17.5t58.5 57.5t39 106.5t14 166.5t-14 166.5t-39 106.5t-58.5 57.5t-72.5 17.5t-73 -17.5t-58.5 -57.5 t-38.5 -106.5t-14 -166.5zM444 1126l93 308h276l-205 -308h-164z" />
<glyph unicode="&#xf4;" d="M82 0zM82 512q0 270 124 401t347 131t347 -131t124 -401t-124 -401t-347 -131t-347 131t-124 401zM225 1147l226 274h205l225 -274h-195l-133 143l-133 -143h-195zM369 512q0 -100 14 -166.5t38.5 -106.5t58.5 -57.5t73 -17.5t72.5 17.5t58.5 57.5t39 106.5t14 166.5 t-14 166.5t-39 106.5t-58.5 57.5t-72.5 17.5t-73 -17.5t-58.5 -57.5t-38.5 -106.5t-14 -166.5z" />
<glyph unicode="&#xf5;" d="M82 0zM82 512q0 270 124 401t347 131t347 -131t124 -401t-124 -401t-347 -131t-347 131t-124 401zM225 1231q4 39 20.5 75.5t42.5 65.5t59.5 46.5t72.5 17.5q43 0 72.5 -14.5t55.5 -32t48.5 -32t48.5 -14.5q18 0 33.5 12.5t27 28t16.5 28.5l5 13h19l114 -61 q-4 -39 -20.5 -76t-42 -65.5t-59 -46t-72.5 -17.5q-43 0 -73 14.5t-55.5 32t-48 31.5t-48.5 14q-18 0 -35 -13t-27 -28.5t-15 -28.5l-5 -12h-19zM369 512q0 -100 14 -166.5t38.5 -106.5t58.5 -57.5t73 -17.5t72.5 17.5t58.5 57.5t39 106.5t14 166.5t-14 166.5t-39 106.5 t-58.5 57.5t-72.5 17.5t-73 -17.5t-58.5 -57.5t-38.5 -106.5t-14 -166.5z" />
<glyph unicode="&#xf6;" d="M82 0zM82 512q0 270 124 401t347 131t347 -131t124 -401t-124 -401t-347 -131t-347 131t-124 401zM204 1311q0 57 43.5 100t100.5 43t100 -43t43 -100t-43 -100.5t-100 -43.5t-100.5 43t-43.5 101zM369 512q0 -100 14 -166.5t38.5 -106.5t58.5 -57.5t73 -17.5t72.5 17.5 t58.5 57.5t39 106.5t14 166.5t-14 166.5t-39 106.5t-58.5 57.5t-72.5 17.5t-73 -17.5t-58.5 -57.5t-38.5 -106.5t-14 -166.5zM604 1311q0 57 43 100t100 43t100.5 -43t43.5 -100t-43 -100.5t-101 -43.5q-57 0 -100 43t-43 101z" />
<glyph unicode="&#xf7;" horiz-adv-x="962" d="M61 573v205h840v-205h-840zM328 317q0 61 46 107.5t107 46.5t107.5 -46t46.5 -108q0 -61 -46 -107t-108 -46q-61 0 -107 46t-46 107zM328 1034q0 61 46 107.5t107 46.5t107.5 -46t46.5 -108q0 -61 -46 -107t-108 -46q-61 0 -107 46t-46 107z" />
<glyph unicode="&#xf8;" d="M82 0l100 139q-100 135 -100 373q0 270 124 401t347 131q147 0 250 -57l26 37h193l-100 -139q49 -66 75.5 -158t26.5 -215q0 -270 -124 -401t-347 -131q-147 0 -252 55l-25 -35h-194zM369 451.5q0 -27.5 4 -52.5l297 406q-47 55 -117 55q-39 0 -73 -17.5t-58.5 -57.5 t-38.5 -106.5t-14 -166.5v-60.5zM436 219q23 -31 52.5 -43t64.5 -12q39 0 72.5 17.5t58.5 57.5t39 106.5t14 166.5q0 59 -6 113z" />
<glyph unicode="&#xf9;" horiz-adv-x="1187" d="M143 0zM143 369v655h287v-655q0 -100 42 -147.5t112 -47.5q41 0 73.5 19.5t55.5 42.5q25 27 45 61v727h286v-1024h-204l-21 123h-10q-31 -41 -70 -72q-35 -29 -86 -50t-121 -21q-186 0 -287.5 101t-101.5 288zM352 1416h277l92 -308h-164z" />
<glyph unicode="&#xfa;" horiz-adv-x="1187" d="M143 0zM143 369v655h287v-655q0 -100 42 -147.5t112 -47.5q41 0 73.5 19.5t55.5 42.5q25 27 45 61v727h286v-1024h-204l-21 123h-10q-31 -41 -70 -72q-35 -29 -86 -50t-121 -21q-186 0 -287.5 101t-101.5 288zM485 1108l93 308h276l-205 -308h-164z" />
<glyph unicode="&#xfb;" horiz-adv-x="1187" d="M143 0zM143 369v655h287v-655q0 -100 42 -147.5t112 -47.5q41 0 73.5 19.5t55.5 42.5q25 27 45 61v727h286v-1024h-204l-21 123h-10q-31 -41 -70 -72q-35 -29 -86 -50t-121 -21q-186 0 -287.5 101t-101.5 288zM266 1147l226 274h205l225 -274h-195l-133 143l-133 -143 h-195z" />
<glyph unicode="&#xfc;" horiz-adv-x="1187" d="M143 0zM143 369v655h287v-655q0 -100 42 -147.5t112 -47.5q41 0 73.5 19.5t55.5 42.5q25 27 45 61v727h286v-1024h-204l-21 123h-10q-31 -41 -70 -72q-35 -29 -86 -50t-121 -21q-186 0 -287.5 101t-101.5 288zM245 1311q0 57 43.5 100t100.5 43t100 -43t43 -100 t-43 -100.5t-100 -43.5t-100.5 43t-43.5 101zM645 1311q0 57 43 100t100 43t100.5 -43t43.5 -100t-43 -100.5t-101 -43.5q-57 0 -100 43t-43 101z" />
<glyph unicode="&#xfd;" horiz-adv-x="1013" d="M12 0zM12 1024h287l205 -666q4 -16 7 -35.5t5 -35.5q2 -20 4 -41h9q2 20 4 41q2 16 5 35.5t7 35.5l174 666h287l-338 -1126q-47 -154 -139.5 -241t-239.5 -87q-47 0 -88 9t-72 22q-37 12 -65 30l71 174h21q14 -16 33 -26q16 -10 36.5 -17.5t42.5 -7.5q96 0 136 144 l28 102h-82zM399 1108l93 308h276l-205 -308h-164z" />
<glyph unicode="&#xfe;" horiz-adv-x="1146" d="M143 -410v1762l82 82h205v-451q23 16 55 31q27 10 65 20t85 10q96 0 175 -32.5t136.5 -99t88 -166t30.5 -234.5t-30.5 -234.5t-88 -166t-136.5 -99t-175 -32.5q-47 0 -85 9t-65 21q-33 12 -55 31v-451h-287zM430 225q20 -18 43 -30q20 -12 48 -21.5t63 -9.5 q43 0 77.5 17.5t61.5 57.5t41 106.5t14 166.5t-14 166.5t-41 106.5t-61.5 57.5t-77.5 17.5q-35 0 -62.5 -10t-48.5 -21q-23 -14 -43 -30v-574z" />
<glyph unicode="&#xff;" horiz-adv-x="1013" d="M12 0zM12 1024h287l205 -666q4 -16 7 -35.5t5 -35.5q2 -20 4 -41h9q2 20 4 41q2 16 5 35.5t7 35.5l174 666h287l-338 -1126q-47 -154 -139.5 -241t-239.5 -87q-47 0 -88 9t-72 22q-37 12 -65 30l71 174h21q14 -16 33 -26q16 -10 36.5 -17.5t42.5 -7.5q96 0 136 144 l28 102h-82zM157 1311q0 57 43.5 100t100.5 43t100 -43t43 -100t-43 -100.5t-100 -43.5t-100.5 43t-43.5 101zM557 1311q0 57 43 100t100 43t100.5 -43t43.5 -100t-43 -100.5t-101 -43.5q-57 0 -100 43t-43 101z" />
<glyph unicode="&#x152;" horiz-adv-x="1710" d="M102 717q0 369 166 543t490 174h901v-185h-553v-409h430v-185h-430v-471h553v-184h-901q-324 0 -490 174t-166 543zM389 717q0 -154 22.5 -256.5t68.5 -163.5t116 -87t162 -26h61v1065h-61q-92 0 -162 -25.5t-116 -87t-68.5 -164t-22.5 -255.5z" />
<glyph unicode="&#x153;" horiz-adv-x="1730" d="M82 512q0 270 124 401t347 131q92 0 179 -36.5t149 -106.5q61 70 143 106.5t174 36.5q207 0 329 -129t122 -383v-51l-62 -61h-553q0 -256 246 -256q49 0 89 12t69 29q33 18 57 41h21l92 -164q-45 -29 -99 -51q-47 -20 -109 -35.5t-140 -15.5q-123 0 -220.5 36.5 t-158.5 106.5q-61 -70 -140 -106.5t-188 -36.5q-223 0 -347 131t-124 401zM369 512q0 -100 14 -166.5t38.5 -106.5t58.5 -57.5t73 -17.5t72.5 17.5t58.5 57.5t39 106.5t14 166.5t-14 166.5t-39 106.5t-58.5 57.5t-72.5 17.5t-73 -17.5t-58.5 -57.5t-38.5 -106.5t-14 -166.5z M1034 604h328q0 131 -51.5 193.5t-112.5 62.5t-112.5 -62.5t-51.5 -193.5z" />
<glyph unicode="&#x178;" horiz-adv-x="1167" d="M0 0zM0 1434h297l256 -605q6 -16 11 -31.5t9 -29.5q4 -16 7 -31h8q2 14 6 31q4 14 8 29.5t12 31.5l256 605h297l-440 -963v-471h-287v471zM235 1721q0 57 43.5 100t100.5 43t100 -43t43 -100t-43 -100.5t-100 -43.5t-100.5 43t-43.5 101zM635 1721q0 57 43 100t100 43 t100.5 -43t43.5 -100t-43 -100.5t-101 -43.5q-57 0 -100 43t-43 101z" />
<glyph unicode="&#x2c6;" horiz-adv-x="696" d="M20 1147l226 274h205l225 -274h-195l-133 143l-133 -143h-195z" />
<glyph unicode="&#x2dc;" horiz-adv-x="675" d="M20 1270q4 39 20.5 75.5t42.5 65.5t59.5 46.5t72.5 17.5q43 0 72.5 -14.5t55.5 -32t48.5 -32t48.5 -14.5q18 0 33.5 12.5t27 28t16.5 28.5l5 13h19l114 -61q-4 -39 -20.5 -76t-42 -65.5t-59 -46t-72.5 -17.5q-43 0 -73 14.5t-55.5 32t-48 31.5t-48.5 14q-18 0 -35 -13 t-27 -28.5t-15 -28.5l-5 -12h-19z" />
<glyph unicode="&#x2000;" horiz-adv-x="978" />
<glyph unicode="&#x2001;" horiz-adv-x="1956" />
<glyph unicode="&#x2002;" horiz-adv-x="978" />
<glyph unicode="&#x2003;" horiz-adv-x="1956" />
<glyph unicode="&#x2004;" horiz-adv-x="652" />
<glyph unicode="&#x2005;" horiz-adv-x="489" />
<glyph unicode="&#x2006;" horiz-adv-x="326" />
<glyph unicode="&#x2007;" horiz-adv-x="326" />
<glyph unicode="&#x2008;" horiz-adv-x="244" />
<glyph unicode="&#x2009;" horiz-adv-x="391" />
<glyph unicode="&#x200a;" horiz-adv-x="108" />
<glyph unicode="&#x2010;" horiz-adv-x="921" d="M61 573v205h799v-205h-799z" />
<glyph unicode="&#x2011;" horiz-adv-x="921" d="M61 573v205h799v-205h-799z" />
<glyph unicode="&#x2012;" horiz-adv-x="921" d="M61 573v205h799v-205h-799z" />
<glyph unicode="&#x2013;" horiz-adv-x="1085" d="M61 492v204h963v-204h-963z" />
<glyph unicode="&#x2014;" horiz-adv-x="1515" d="M61 492v204h1393v-204h-1393z" />
<glyph unicode="&#x2018;" horiz-adv-x="450" d="M72 1065q0 111 34.5 185.5t77.5 119.5q49 53 113 84l61 -82q-39 -23 -67 -49q-25 -23 -45.5 -54.5t-20.5 -70.5q61 0 107.5 -46.5t46.5 -107.5q0 -31 -12.5 -58.5t-33 -49t-46 -33.5t-51.5 -12q-70 0 -117 48t-47 126z" />
<glyph unicode="&#x2019;" horiz-adv-x="450" d="M72 1300q0 31 12 58.5t32.5 49.5t46 34t52.5 12q70 0 117 -48t47 -126q0 -113 -36 -186.5t-77 -118.5q-51 -53 -112 -84l-62 82q37 23 66 49q25 23 46 54.5t21 70.5q-61 0 -107 46t-46 107z" />
<glyph unicode="&#x201a;" horiz-adv-x="450" d="M72 133q0 31 12 58.5t32.5 49t46 34t52.5 12.5q70 0 117 -48.5t47 -125.5q0 -113 -36 -186.5t-77 -119.5q-51 -53 -112 -83l-62 81q37 23 66 50q25 23 46 54.5t21 70.5q-61 0 -107 46t-46 107z" />
<glyph unicode="&#x201c;" horiz-adv-x="839" d="M72 1065q0 111 34.5 185.5t77.5 119.5q49 53 113 84l61 -82q-39 -23 -67 -49q-25 -23 -45.5 -54.5t-20.5 -70.5q61 0 107.5 -46.5t46.5 -107.5q0 -31 -12.5 -58.5t-33 -49t-46 -33.5t-51.5 -12q-70 0 -117 48t-47 126zM461 1065q0 111 34.5 185.5t77.5 119.5 q49 53 113 84l62 -82q-39 -23 -68 -49q-25 -23 -45.5 -54.5t-20.5 -70.5q61 0 107.5 -46.5t46.5 -107.5q0 -31 -12.5 -58.5t-33 -49t-46 -33.5t-51.5 -12q-70 0 -117 48t-47 126z" />
<glyph unicode="&#x201d;" horiz-adv-x="839" d="M72 1300q0 31 12 58.5t32.5 49.5t46 34t52.5 12q70 0 117 -48t47 -126q0 -113 -36 -186.5t-77 -118.5q-51 -53 -112 -84l-62 82q37 23 66 49q25 23 46 54.5t21 70.5q-61 0 -107 46t-46 107zM461 1300q0 31 12 58.5t32.5 49.5t46.5 34t52 12q70 0 117 -48t47 -126 q0 -113 -36 -186.5t-77 -118.5q-51 -53 -112 -84l-62 82q37 23 66 49q25 23 46 54.5t21 70.5q-61 0 -107 46t-46 107z" />
<glyph unicode="&#x201e;" horiz-adv-x="839" d="M72 133q0 31 12 58.5t32.5 49t46 34t52.5 12.5q70 0 117 -48.5t47 -125.5q0 -113 -36 -186.5t-77 -119.5q-51 -53 -112 -83l-62 81q37 23 66 50q25 23 46 54.5t21 70.5q-61 0 -107 46t-46 107zM461 133q0 31 12 58.5t32.5 49t46.5 34t52 12.5q70 0 117 -48.5t47 -125.5 q0 -113 -36 -186.5t-77 -119.5q-51 -53 -112 -83l-62 81q37 23 66 50q25 23 46 54.5t21 70.5q-61 0 -107 46t-46 107z" />
<glyph unicode="&#x2022;" horiz-adv-x="880" d="M154 635q0 61 21.5 113.5t60 91.5t91 60.5t113.5 21.5t113.5 -21.5t91.5 -60.5t60.5 -91.5t21.5 -113.5t-21.5 -113.5t-60.5 -91.5t-91 -60.5t-114 -21.5q-61 0 -113.5 21.5t-91 60.5t-60 91t-21.5 114z" />
<glyph unicode="&#x2026;" horiz-adv-x="1351" d="M72 133q0 61 46 107.5t107 46.5t107.5 -46t46.5 -108q0 -61 -46 -107t-108 -46q-61 0 -107 46t-46 107zM522 133q0 61 46.5 107.5t107.5 46.5t107 -46t46 -108q0 -61 -46 -107t-107 -46t-107.5 46t-46.5 107zM973 133q0 61 46 107.5t107 46.5t107.5 -46t46.5 -108 q0 -61 -46 -107t-108 -46q-61 0 -107 46t-46 107z" />
<glyph unicode="&#x202f;" horiz-adv-x="391" />
<glyph unicode="&#x2039;" horiz-adv-x="696" d="M0 532l389 431h307l-389 -431l389 -430h-307z" />
<glyph unicode="&#x203a;" horiz-adv-x="696" d="M0 102l389 430l-389 431h307l389 -431l-389 -430h-307z" />
<glyph unicode="&#x205f;" horiz-adv-x="489" />
<glyph unicode="&#x20ac;" horiz-adv-x="1157" d="M20 512l31 154h113v102h-133l30 154h113q18 141 65.5 242.5t118 166t160.5 94t199 29.5q88 0 158.5 -17.5t119.5 -39.5q57 -25 101 -56l-92 -163h-21q-29 25 -65 45q-33 16 -78 31.5t-103 15.5q-49 0 -94 -17.5t-82 -57.5t-62.5 -106.5t-37.5 -166.5h430l-31 -154h-409 v-102h409l-31 -154h-368q12 -100 37.5 -166.5t64.5 -106.5t88 -57.5t107 -17.5q57 0 102 14.5t78 30.5q37 20 66 47h20l92 -164q-43 -33 -100 -57q-49 -23 -120 -39t-159 -16q-115 0 -210 29.5t-167.5 94t-119.5 166t-66 242.5h-154z" />
<glyph unicode="&#x2122;" horiz-adv-x="1832" d="M20 1270v164h697v-164h-225v-615h-246v615h-226zM788 655v779h246l203 -349q8 -16 13 -31.5t10 -25.5l6 -24h8l6 24q4 10 8 25.5t15 31.5l202 349h246v-779h-246v297v40t2 40q2 23 4 43h-10q-4 -20 -12 -43q-6 -18 -15.5 -39.5t-19.5 -40.5l-102 -174h-164l-103 174 q-10 18 -19 40t-15 40q-8 23 -13 43h-10q0 -20 2 -43q2 -18 3 -39.5t1 -40.5v-297h-246z" />
<glyph unicode="&#x25fc;" horiz-adv-x="1024" d="M0 0v1024h1024v-1024h-1024z" />
</font>
</defs>
</svg>
