<?xml version="1.0" standalone="no"?>
<!DOCTYPE svg PUBLIC "-//W3C//DTD SVG 1.1//EN" "http://www.w3.org/Graphics/SVG/1.1/DTD/svg11.dtd" >
<svg xmlns="http://www.w3.org/2000/svg">
<metadata></metadata>
<defs>
<font id="scadaregular" horiz-adv-x="1044" >
<font-face units-per-em="2048" ascent="1638" descent="-410" />
<missing-glyph horiz-adv-x="593" />
<glyph horiz-adv-x="0" />
<glyph unicode="&#xd;" horiz-adv-x="681" />
<glyph unicode=" "  horiz-adv-x="593" />
<glyph unicode="&#x09;" horiz-adv-x="593" />
<glyph unicode="&#xa0;" horiz-adv-x="593" />
<glyph unicode="!" horiz-adv-x="593" d="M174 102q0 53 35 88t88 35t88 -34.5t35 -88.5q0 -53 -35 -87.5t-88 -34.5t-88 34.5t-35 87.5zM174 1434h246l-41 -1065h-164z" />
<glyph unicode="&#x22;" horiz-adv-x="696" d="M82 1434h215l-41 -492h-133zM399 1434h215l-41 -492h-133z" />
<glyph unicode="#" horiz-adv-x="1351" d="M41 369v143h240l94 410h-211v143h244l84 369h204l-84 -369h287l84 369h205l-84 -369h207v-143h-240l-94 -410h211v-143h-244l-84 -369h-205l84 369h-286l-84 -369h-205l84 369h-207zM485 512h287l94 410h-286z" />
<glyph unicode="$" horiz-adv-x="1013" d="M61 92l72 123h21q37 -27 84 -47q41 -16 97 -30.5t126 -14.5q139 0 213 68.5t74 177.5q0 82 -49.5 134t-123 92t-160.5 76t-161 86t-123 122.5t-49 185.5q0 141 80 240.5t227 134.5v137h215v-127q78 -8 137.5 -25.5t100.5 -35.5q47 -23 80 -48l-72 -122h-21q-31 25 -73 45 q-37 16 -90.5 31.5t-122.5 15.5q-57 0 -104.5 -18.5t-81 -49.5t-52 -72t-18.5 -86q0 -82 49 -134t122.5 -92t161 -75.5t161 -86t122.5 -123t49 -185.5q0 -160 -88 -265.5t-260 -133.5v-133h-215v129q-78 8 -139.5 25.5t-102.5 35.5q-49 23 -86 45z" />
<glyph unicode="%" horiz-adv-x="1638" d="M61 1085q0 178 90.5 273.5t237.5 95.5t237.5 -95t90.5 -274q0 -178 -90 -273t-238 -95q-147 0 -237.5 95t-90.5 273zM225 0l963 1434h225l-962 -1434h-226zM246 1085q0 -70 11 -116.5t29.5 -75.5t45 -41t57.5 -12t57.5 12t45 41t29.5 76t11 116q0 137 -41 191.5 t-102 54.5t-102 -54t-41 -192zM922 348q0 178 90 273.5t237 95.5t237.5 -95.5t90.5 -273.5t-90 -273t-238 -95q-147 0 -237 95t-90 273zM1106 348q0 -70 11 -117t29.5 -75.5t45.5 -41t57 -12.5q31 0 57.5 12.5t45 41t30 76t11.5 116.5q0 137 -41.5 191.5t-102.5 54.5 t-102 -54.5t-41 -191.5z" />
<glyph unicode="&#x26;" horiz-adv-x="1259" d="M61 369q0 70 25 128t67 107t95 92t110 82q-51 49 -88 105q-33 47 -59.5 110.5t-26.5 132.5q0 147 94.5 237.5t264.5 90.5q80 0 144.5 -23.5t109.5 -64.5t69.5 -97.5t24.5 -121.5q0 -86 -43 -155.5t-96 -123.5q-61 -61 -138 -110l308 -369q23 53 32 121t9 145h184 q0 -117 -30 -215t-83 -184l215 -256h-245l-103 123q-86 -70 -189.5 -106.5t-219.5 -36.5q-100 0 -180.5 28.5t-135.5 80.5t-85 124t-30 156zM266 369q0 -109 71.5 -177.5t194.5 -68.5q86 0 155 24.5t122 77.5l-348 420q-84 -61 -139.5 -126.5t-55.5 -149.5zM389 1126 q0 -43 19.5 -84t42.5 -75q27 -39 61 -76q49 33 86 74q33 35 60.5 82t27.5 100q0 86 -41 130t-102 44q-70 0 -112 -47.5t-42 -147.5z" />
<glyph unicode="'" horiz-adv-x="378" d="M82 1434h215l-41 -492h-133z" />
<glyph unicode="(" horiz-adv-x="583" d="M113 573q0 131 24.5 260.5t73.5 249t122 227t169 195.5l82 -82q-123 -178 -195 -382.5t-72 -467.5q0 -262 72 -466.5t195 -382.5l-82 -82q-96 88 -169 195.5t-122 227t-73.5 248.5t-24.5 260z" />
<glyph unicode=")" horiz-adv-x="583" d="M0 -276q123 178 194.5 382.5t71.5 466.5t-71.5 467t-194.5 383l82 82q96 -88 169 -195.5t122 -227t73.5 -249t24.5 -260.5t-24.5 -260t-73.5 -248.5t-122 -227t-169 -195.5z" />
<glyph unicode="*" horiz-adv-x="839" d="M61 942l215 123l-215 123l72 123l215 -123v246h144v-246l215 123l71 -123l-215 -123l215 -123l-71 -123l-215 123v-246h-144v246l-215 -123z" />
<glyph unicode="+" horiz-adv-x="962" d="M61 594v164h338v338h164v-338h338v-164h-338v-338h-164v338h-338z" />
<glyph unicode="," horiz-adv-x="409" d="M82 102q0 53 32.5 88t80.5 35q61 0 97 -36.5t36 -106.5q0 -90 -29 -154.5t-63 -107.5q-41 -51 -93 -86l-61 71q31 25 55 54q23 25 40.5 55.5t17.5 65.5q-47 0 -80 34.5t-33 87.5z" />
<glyph unicode="-" horiz-adv-x="901" d="M61 594v164h779v-164h-779z" />
<glyph unicode="." horiz-adv-x="409" d="M82 102q0 53 35 88t88 35t88 -34.5t35 -88.5q0 -53 -35 -87.5t-88 -34.5t-88 34.5t-35 87.5z" />
<glyph unicode="/" horiz-adv-x="839" d="M0 0l635 1434h205l-635 -1434h-205z" />
<glyph unicode="0" horiz-adv-x="1187" d="M113 717q0 199 35.5 339t100 229t152.5 129t193 40q104 0 192 -40t153 -129t100.5 -229.5t35.5 -338.5q0 -201 -35.5 -340t-100.5 -228.5t-153 -129t-192 -39.5t-192.5 39.5t-153 129t-100 228.5t-35.5 340zM317 717q0 -176 21.5 -291t59.5 -182.5t88.5 -94t107.5 -26.5 t107.5 26.5t88 94t59 182.5t21.5 291t-21.5 290.5t-59 182t-88 94.5t-107.5 27t-107.5 -27t-88.5 -94.5t-59.5 -182t-21.5 -290.5z" />
<glyph unicode="1" horiz-adv-x="798" d="M41 1188l307 246h184v-1291h226v-143h-656v143h226v1065l-205 -133z" />
<glyph unicode="2" horiz-adv-x="1024" d="M61 0v143q0 102 49.5 187.5t123 161t160.5 145.5t161 140.5t123 145t49 162.5q0 92 -72.5 159t-203.5 67q-70 0 -123.5 -15.5t-89.5 -31.5q-43 -20 -74 -45h-21l-71 122q41 31 100 56q49 23 124 40t175 17q111 0 197 -28.5t144 -81t89 -124t31 -155.5q0 -102 -49 -190.5 t-123 -167t-161 -149.5t-160.5 -139.5t-123 -136t-49.5 -139.5h666v-143h-871z" />
<glyph unicode="3" horiz-adv-x="1024" d="M31 92l71 123h21q31 -27 74 -47q37 -16 90 -30.5t123 -14.5q170 0 248.5 73.5t78.5 213.5q0 139 -78.5 212.5t-248.5 73.5h-215v144l460 450h-594v144h840v-144l-461 -450q254 0 378 -116t124 -314q0 -201 -125 -315.5t-387 -114.5q-100 0 -175 16t-124 39 q-59 25 -100 57z" />
<glyph unicode="4" horiz-adv-x="1105" d="M20 348v144l676 942h205v-942h164v-144h-164v-348h-205v348h-676zM246 492h450v532q0 18 2 43t7 47q4 25 8 53h-8q-14 -29 -29 -53q-12 -23 -25.5 -47.5t-25.5 -42.5z" />
<glyph unicode="5" horiz-adv-x="1034" d="M51 92l72 123h20q31 -27 74 -47q37 -16 90 -30.5t123 -14.5q317 0 318 307q0 307 -318 307h-246l-61 62v635h776v-144h-571v-409h133q248 0 369.5 -117t121.5 -334t-122.5 -333.5t-378.5 -116.5q-100 0 -175 16t-124 39q-59 25 -101 57z" />
<glyph unicode="6" horiz-adv-x="1095" d="M113 471v369q0 322 129 468t352 146q88 0 156.5 -17.5t115.5 -39.5q55 -25 97 -56l-72 -122h-21q-31 25 -69 45q-35 16 -82 31.5t-105 15.5q-66 0 -120 -24.5t-94 -80t-61.5 -145.5t-21.5 -221q31 23 72 41q35 16 84 28.5t111 12.5q201 0 315.5 -117t114.5 -334 q0 -248 -116 -369.5t-323 -121.5q-225 0 -343.5 121.5t-118.5 369.5zM317 471q0 -184 71 -266t185 -82q100 0 168 82t68 266q0 154 -71.5 230.5t-194.5 76.5q-53 0 -95 -12t-71 -29q-35 -18 -60 -41v-225z" />
<glyph unicode="7" horiz-adv-x="901" d="M0 1290v144h881v-144q-70 -84 -139.5 -201.5t-125 -259t-90 -305.5t-34.5 -340v-184h-205v184q0 176 31.5 340t84 305.5t118 259t134.5 201.5h-655z" />
<glyph unicode="8" horiz-adv-x="1146" d="M82 369q0 119 49 194.5t109 118.5q70 51 159 76q-74 25 -129 69q-47 39 -87 104t-40 165q0 74 30 138t85 113.5t135 78t180 28.5t180.5 -28.5t135.5 -78t85 -114t30 -137.5q0 -100 -41 -165t-89 -104q-55 -45 -126 -69q88 -25 157 -76q31 -23 59.5 -51.5t51 -67.5t36 -87 t13.5 -107q0 -78 -34 -147.5t-97.5 -124t-154.5 -86t-206 -31.5t-206 31.5t-154 86t-97 124t-34 147.5zM287 369q0 -109 73.5 -177.5t212.5 -68.5t213 68.5t74 177.5q0 61 -23.5 108t-62.5 84t-91.5 64.5t-109.5 50.5q-57 -23 -109 -50.5t-91 -64.5t-62.5 -84t-23.5 -108z M348 1096q0 -53 17.5 -94t48 -72t71.5 -53.5t88 -36.5q45 14 86 36.5t72 53.5t49.5 71.5t18.5 94.5q0 43 -18.5 82t-49.5 68.5t-72 47t-86 17.5q-47 0 -88 -17.5t-71.5 -47t-48 -68.5t-17.5 -82z" />
<glyph unicode="9" horiz-adv-x="1095" d="M82 963q0 248 115.5 369.5t322.5 121.5q225 0 344 -122t119 -369v-369q0 -162 -34 -277.5t-96 -190.5t-151.5 -110.5t-199.5 -35.5q-90 0 -158 16t-115 39q-55 25 -96 57l72 123h20q31 -27 70 -47q35 -16 81 -30.5t105 -14.5q66 0 120 24.5t94 80t61.5 145.5t21.5 221 q-33 -23 -71 -41q-35 -16 -84.5 -28.5t-110.5 -12.5q-201 0 -315.5 116.5t-114.5 334.5zM287 963q0 -154 71.5 -231t194.5 -77q53 0 95 12.5t71 28.5q35 18 59 41v226q0 184 -70.5 266t-185.5 82q-100 0 -167.5 -82t-67.5 -266z" />
<glyph unicode=":" horiz-adv-x="409" d="M82 102q0 53 35 88t88 35t88 -34.5t35 -88.5q0 -53 -35 -87.5t-88 -34.5t-88 34.5t-35 87.5zM82 922q0 53 35 87.5t88 34.5t88 -34.5t35 -87.5t-35 -88t-88 -35t-88 35t-35 88z" />
<glyph unicode=";" horiz-adv-x="409" d="M82 102q0 53 32.5 88t80.5 35q61 0 97 -36.5t36 -106.5q0 -90 -29 -154.5t-63 -107.5q-41 -51 -93 -86l-61 71q31 25 55 54q23 25 40.5 55.5t17.5 65.5q-47 0 -80 34.5t-33 87.5zM82 922q0 53 35 87.5t88 34.5t88 -34.5t35 -87.5t-35 -88t-88 -35t-88 35t-35 88z" />
<glyph unicode="&#x3c;" horiz-adv-x="962" d="M82 440v144l799 440v-195l-574 -317l574 -317v-195z" />
<glyph unicode="=" horiz-adv-x="962" d="M72 410v163h819v-163h-819zM72 778v164h819v-164h-819z" />
<glyph unicode="&#x3e;" horiz-adv-x="911" d="M72 0v195l573 317l-573 317v195l798 -440v-144z" />
<glyph unicode="?" horiz-adv-x="942" d="M0 1341q41 31 100 56q49 23 124 40t175 17q111 0 197 -28.5t144.5 -81t89 -124t30.5 -155.5q0 -88 -29.5 -148.5t-73.5 -106.5t-95.5 -83t-95.5 -76t-73.5 -87t-29.5 -113v-82h-184v82q0 86 27.5 147t69.5 108.5t91 85t91 78.5t69.5 92.5t27.5 122.5q0 92 -72.5 159 t-203.5 67q-70 0 -123 -15.5t-90 -31.5q-43 -20 -74 -45h-20zM248 102q0 53 34.5 88t88.5 35q53 0 88 -34.5t35 -88.5q0 -53 -35 -87.5t-88 -34.5t-88 34.5t-35 87.5z" />
<glyph unicode="@" horiz-adv-x="1904" d="M92 614q0 184 65.5 342t180.5 272.5t272.5 180.5t341.5 66t342 -66t272.5 -180.5t180 -272t65.5 -342.5q0 -127 -28.5 -221t-78.5 -156.5t-117.5 -93t-143.5 -30.5q-78 0 -130 16t-85 39q-37 25 -62 57h-10q-33 -33 -72 -57q-35 -23 -84 -39t-110 -16q-78 0 -143.5 29.5 t-112.5 90t-75 152.5t-28 219t28 219t75 152.5t112.5 90.5t143.5 30q66 0 115 -21.5t84 -46.5q39 -29 67 -65h10l21 112h143v-788q12 -12 27 -21q12 -8 28.5 -14t36.5 -6q35 0 71 18.5t65.5 61.5t49 113.5t19.5 174.5q0 162 -51 294t-141 226.5t-214 145.5t-270 51 q-145 0 -269 -51t-214 -145.5t-141.5 -226.5t-51.5 -294t51.5 -294t141.5 -226t214 -145t269 -51q78 0 137.5 14t102.5 31q49 20 88 47h20l72 -123q-47 -33 -112 -57q-55 -23 -137 -39.5t-191 -16.5q-176 0 -329.5 65.5t-267.5 180.5t-178.5 272.5t-64.5 341.5zM737 604 q0 -92 16.5 -156.5t44 -104.5t64.5 -58.5t80 -18.5q39 0 73 14.5t58 30.5q29 20 53 47v471q-25 31 -53 56q-25 23 -58.5 40t-72.5 17q-43 0 -80 -18.5t-64.5 -58.5t-44 -104.5t-16.5 -156.5z" />
<glyph unicode="A" horiz-adv-x="1167" d="M31 0l420 1434h266l420 -1434h-205l-113 369h-471l-112 -369h-205zM389 512h389l-164 563q-8 23 -12 48.5t-8 47.5q-4 25 -6 48h-8q-2 -25 -7 -50q-4 -23 -9 -47t-11 -47z" />
<glyph unicode="B" horiz-adv-x="1177" d="M184 0v1434h389q111 0 196 -28t141.5 -75t85 -113.5t28.5 -142.5q0 -100 -37 -161.5t-82 -96.5q-54 -41 -117 -59q80 -18 144 -66q27 -20 52.5 -48t46 -64.5t32.5 -83.5t12 -107q0 -88 -29.5 -159.5t-91 -123t-155.5 -79t-226 -27.5h-389zM389 143h184q154 0 225.5 68 t71.5 199t-71.5 198.5t-225.5 67.5h-184v-533zM389 819h184q117 0 181.5 63.5t64.5 172.5t-64.5 172t-181.5 63h-184v-471z" />
<glyph unicode="C" horiz-adv-x="1054" d="M113 717q0 199 36.5 339t104.5 229t162 129t209 40q86 0 151.5 -17.5t112.5 -39.5q53 -25 94 -56l-72 -122h-20q-33 25 -70 45q-33 16 -78 31.5t-98 15.5q-70 0 -129 -30t-103 -98.5t-70 -183t-26 -282.5q0 -170 26 -284t72 -182.5t109.5 -98t141.5 -29.5q53 0 98 14.5 t78 30.5q37 20 69 47h21l72 -123q-41 -33 -95 -57q-47 -23 -112.5 -39t-151.5 -16q-123 0 -221 39.5t-168 129t-106.5 228.5t-36.5 340z" />
<glyph unicode="D" horiz-adv-x="1198" d="M184 0v1434h308q145 0 256.5 -40t186.5 -126t112.5 -222.5t37.5 -328.5q0 -193 -37.5 -329t-112.5 -222t-186.5 -126t-256.5 -40h-308zM389 143h103q92 0 164.5 29t121.5 96.5t76 177t27 271.5t-27 271.5t-76 177t-121.5 96t-164.5 28.5h-103v-1147z" />
<glyph unicode="E" d="M184 0v1434h799v-144h-594v-471h471v-143h-471v-533h594v-143h-799z" />
<glyph unicode="F" horiz-adv-x="1024" d="M184 0v1434h799v-144h-594v-491h471v-144h-471v-655h-205z" />
<glyph unicode="G" horiz-adv-x="1157" d="M113 717q0 193 40 332t108.5 229t161.5 133t202 43q86 0 151.5 -17.5t112.5 -39.5q53 -25 94 -56l-72 -122h-20q-33 25 -70 45q-33 16 -78 31.5t-98 15.5q-70 0 -129 -30t-103 -98.5t-70 -183t-26 -282.5q0 -170 26 -284t72 -182.5t109.5 -98t141.5 -29.5q31 0 58.5 7 t49 14.5t33.5 13.5l12 6v471h-235v143h379l61 -61v-625q-43 -33 -100 -57q-49 -23 -120 -39t-159 -16q-115 0 -213 43t-168.5 133t-110.5 229t-40 332z" />
<glyph unicode="H" horiz-adv-x="1290" d="M184 0v1434h205v-635h512v635h205v-1434h-205v655h-512v-655h-205z" />
<glyph unicode="I" horiz-adv-x="573" d="M184 0v1434h205v-1434h-205z" />
<glyph unicode="J" horiz-adv-x="870" d="M0 72l61 133h21q25 -23 53 -41q25 -16 55.5 -28.5t65.5 -12.5q117 0 176.5 63.5t59.5 202.5v1045h204v-1045q0 -201 -105.5 -305t-314.5 -104q-61 0 -112 14t-88 31q-43 20 -76 47z" />
<glyph unicode="K" horiz-adv-x="1136" d="M184 0v1434h205v-676l461 676h235l-471 -697l492 -737h-236l-481 717v-717h-205z" />
<glyph unicode="L" horiz-adv-x="1003" d="M184 0v1434h205v-1291h594v-143h-799z" />
<glyph unicode="M" horiz-adv-x="1720" d="M184 0v1434h205l430 -871q8 -12 15.5 -29.5t11.5 -33.5q6 -20 10 -39h8q4 18 10 39q4 16 11.5 33.5t15.5 29.5l430 871h205v-1434h-205v860q0 23 1 52.5t3 58.5q2 31 4 63h-8q-8 -33 -18 -63q-10 -29 -21.5 -58.5t-21.5 -52.5l-307 -604h-205l-307 604q-12 23 -22.5 52.5 t-20.5 58.5q-10 31 -19 63h-8q2 -33 4 -63q2 -29 3 -58.5t1 -52.5v-860h-205z" />
<glyph unicode="N" horiz-adv-x="1290" d="M184 0v1434h226l430 -912q10 -23 20 -53.5t21 -56.5q10 -33 20 -64h8q-2 31 -4 64q-2 27 -3 57.5t-1 52.5v912h205v-1434h-225l-430 911q-10 23 -20.5 52.5t-20.5 58.5q-10 31 -21 63h-8q2 -33 4 -63q2 -29 3 -58.5t1 -52.5v-911h-205z" />
<glyph unicode="O" horiz-adv-x="1228" d="M113 717q0 199 36.5 339t102 229t159 129t203.5 40q111 0 204 -40t158.5 -129t102.5 -229t37 -339q0 -201 -37 -340t-102.5 -228.5t-158.5 -129t-204 -39.5t-204 39.5t-158.5 129t-102 228.5t-36.5 340zM317 717q0 -170 25 -284t67 -182.5t95 -98t110 -29.5t110.5 29.5 t95.5 98t66.5 182.5t24.5 284q0 168 -24.5 282.5t-66.5 183t-95 98.5t-111 30q-57 0 -110 -30t-95 -98.5t-67 -183t-25 -282.5z" />
<glyph unicode="P" horiz-adv-x="1157" d="M184 0v1434h369q262 0 387 -120t125 -351t-125 -351t-387 -120h-164v-492h-205zM389 635h164q154 0 230.5 79t76.5 249t-76.5 248.5t-230.5 78.5h-164v-655z" />
<glyph unicode="Q" horiz-adv-x="1228" d="M113 717q0 199 36.5 339t102 229t159 129t203.5 40q111 0 204 -40t158.5 -129t102.5 -229t37 -339q0 -176 -29.5 -306t-82 -218.5t-126 -138.5t-161.5 -64q0 -86 35.5 -125t97.5 -39q31 0 51 10q10 4 21 10h20l41 -133q-23 -8 -47 -16q-23 -6 -49.5 -10t-57.5 -4 q-147 0 -232 83.5t-85 223.5q-88 14 -162 64t-126 138.5t-81.5 218.5t-29.5 306zM317 717q0 -170 25 -284t67 -182.5t95 -98t110 -29.5t110.5 29.5t95.5 98t66.5 182.5t24.5 284q0 168 -24.5 282.5t-66.5 183t-95 98.5t-111 30q-57 0 -110 -30t-95 -98.5t-67 -183 t-25 -282.5z" />
<glyph unicode="R" horiz-adv-x="1177" d="M184 0v1434h348q262 0 387 -117t125 -334q0 -328 -280 -420l342 -563h-236l-317 532h-164v-532h-205zM389 676h143q307 0 308 307q0 307 -308 307h-143v-614z" />
<glyph unicode="S" horiz-adv-x="1034" d="M72 92l71 123h21q37 -27 84 -47q41 -16 97 -30.5t126 -14.5q139 0 213 68.5t74 177.5q0 82 -49.5 134t-123 92t-160.5 76t-161 86t-123 122.5t-49 185.5q0 84 30 155.5t85 124t135 81t180 28.5t174 -17.5t125 -39.5q57 -25 101 -56l-72 -122h-21q-31 25 -73 45 q-37 16 -90.5 31.5t-122.5 15.5q-53 0 -98.5 -18.5t-78 -49.5t-51 -72t-18.5 -86q0 -82 49 -134t123 -92t161 -75.5t160.5 -86t123 -123t49.5 -185.5q0 -92 -31 -168t-90.5 -129t-147.5 -82.5t-202 -29.5q-100 0 -178 16t-132 39q-63 25 -110 57z" />
<glyph unicode="T" horiz-adv-x="983" d="M20 1290v144h943v-144h-369v-1290h-205v1290h-369z" />
<glyph unicode="U" horiz-adv-x="1269" d="M174 451v983h205v-983q0 -170 69.5 -249t186.5 -79t186.5 79t69.5 249v983h205v-983q0 -231 -119 -351t-342 -120t-342 119.5t-119 351.5z" />
<glyph unicode="V" horiz-adv-x="1126" d="M31 1434h205l296 -1076q6 -23 10.5 -47t8.5 -47q4 -25 8 -49h8q2 25 6 49q4 23 9.5 47.5t11.5 46.5l297 1076h205l-400 -1434h-266z" />
<glyph unicode="W" horiz-adv-x="1761" d="M31 1434h205l235 -1004q4 -23 8 -51.5t8 -52.5q4 -29 5 -60h8q2 31 6 60q4 25 7 53.5t9 50.5l236 1004h246l235 -1004q4 -23 8 -51.5t8 -52.5q4 -29 7 -60h8q0 31 4 60q4 25 7 53.5t9 50.5l236 1004h205l-338 -1434h-246l-236 1004q-6 23 -10 51t-8 53q-4 29 -8 59h-8 q-4 -31 -9 -59q-4 -25 -9 -53.5t-9 -50.5l-236 -1004h-245z" />
<glyph unicode="X" horiz-adv-x="1085" d="M31 0l379 727l-369 707h225l236 -461q6 -14 13 -29.5t11 -30.5q6 -16 13 -32h8l12 32q4 14 10 29.5t15 30.5l235 461h225l-368 -707l379 -727h-226l-245 481q-8 12 -14.5 28.5t-10.5 31.5l-12 32h-8q-6 -16 -13 -32q-10 -31 -24 -60l-246 -481h-225z" />
<glyph unicode="Y" horiz-adv-x="1085" d="M0 1434h215l287 -625q8 -20 15 -40.5t11 -39.5q6 -23 11 -43h8q4 20 10 43q4 18 10 38.5t17 41.5l286 625h215l-440 -963v-471h-205v471z" />
<glyph unicode="Z" horiz-adv-x="993" d="M51 0v154l635 1136h-635v144h881v-154l-635 -1137h645v-143h-891z" />
<glyph unicode="[" horiz-adv-x="634" d="M184 -348v1843h410v-143h-205v-1557h205v-143h-410z" />
<glyph unicode="\" horiz-adv-x="839" d="M0 1434h205l635 -1434h-205z" />
<glyph unicode="]" horiz-adv-x="634" d="M41 -205h205v1557h-205v143h410v-1843h-410v143z" />
<glyph unicode="^" horiz-adv-x="880" d="M0 901l369 574h143l369 -574h-205l-236 369l-235 -369h-205z" />
<glyph unicode="_" horiz-adv-x="778" d="M0 -102h778v-164h-778v164z" />
<glyph unicode="`" horiz-adv-x="358" d="M20 1434h226l92 -308h-133z" />
<glyph unicode="a" d="M92 297q0 70 24.5 126t77 96t136.5 62.5t202 22.5h164v51q0 123 -57 184.5t-158 61.5q-47 0 -88 -15.5t-71 -31.5q-37 -20 -66 -45h-20l-72 123q39 31 92 55q45 23 106.5 40t139.5 17q88 0 161.5 -28.5t126 -80.5t82 -124t29.5 -156v-655h-143l-21 123h-10 q-29 -41 -72 -72q-37 -29 -92 -50t-133 -21q-162 0 -250 85t-88 232zM297 297q0 -78 46 -121t138 -43q47 0 86 19.5t68 42.5q35 27 61 61v205h-164q-123 0 -179 -47t-56 -117z" />
<glyph unicode="b" horiz-adv-x="1095" d="M154 0v1372l61 62h143v-451q29 16 66 31q31 10 72 20t88 10q88 0 162.5 -32.5t130 -99t86 -166t30.5 -234.5t-30.5 -234.5t-81 -166t-117 -99t-139.5 -32.5q-78 0 -133.5 21.5t-92.5 49.5q-43 31 -71 72h-11l-20 -123h-143zM358 256q27 -35 62 -61q29 -23 67.5 -42.5 t85.5 -19.5q43 0 82 20.5t69 65.5t47 117t17 176q0 106 -18 181t-50 121t-75 66.5t-92 20.5q-43 0 -78 -6t-61 -14q-31 -8 -56 -21v-604z" />
<glyph unicode="c" horiz-adv-x="931" d="M102 512q0 135 31 234.5t88.5 166t136 99t174.5 32.5q78 0 139.5 -17t106.5 -40q53 -25 92 -55l-71 -123h-21q-31 25 -67 45q-31 16 -71 31.5t-87 15.5q-53 0 -98 -20.5t-78 -66.5t-51.5 -121t-18.5 -181q0 -215 72 -302t194 -87q47 0 87 14.5t71 30.5q37 20 68 47h20 l72 -123q-39 -33 -92 -57q-45 -23 -106.5 -39t-139.5 -16q-207 0 -329 132t-122 400z" />
<glyph unicode="d" horiz-adv-x="1095" d="M102 512q0 135 31 234.5t86 166t130 99t163 32.5q47 0 87 -10t71 -20q37 -14 67 -31v389l62 62h143v-1434h-143l-21 123h-10q-29 -41 -72 -72q-37 -29 -92 -50t-133 -21q-74 0 -140.5 32.5t-116.5 99t-81 166t-31 234.5zM307 512q0 -104 17.5 -176t47 -117t68.5 -65.5 t82 -20.5q47 0 86 19.5t68 42.5q35 27 61 61v604q-25 12 -55 21q-27 8 -62.5 14t-76.5 6q-49 0 -92 -20.5t-75 -66.5t-50.5 -121t-18.5 -181z" />
<glyph unicode="e" horiz-adv-x="1034" d="M102 512q0 135 31 234.5t87 166t133 99t169 32.5t169 -32.5t133.5 -99t87 -166t30.5 -234.5v-31l-41 -41h-594q0 -162 72 -239.5t194 -77.5q47 0 87 14.5t71 30.5q37 20 68 47h20l72 -123q-39 -33 -92 -57q-45 -23 -106.5 -39t-139.5 -16q-207 0 -329 132t-122 400z M307 584h430q0 170 -61.5 243.5t-153.5 73.5t-153.5 -73.5t-61.5 -243.5z" />
<glyph unicode="f" horiz-adv-x="696" d="M41 881v143h133v102q0 74 23.5 134.5t68.5 103.5t106.5 66.5t139.5 23.5q66 0 119 -17.5t94 -39.5q47 -25 84 -56l-72 -122h-20q-27 25 -58 45q-27 16 -59.5 31.5t-67.5 15.5q-70 0 -111.5 -46t-41.5 -139v-102h276v-143h-276v-881h-205v881h-133z" />
<glyph unicode="g" horiz-adv-x="1095" d="M102 512q0 135 31 234.5t81 166t116.5 99t140.5 32.5q78 0 133 -22.5t92 -48.5q43 -33 72 -72h10l21 123h143v-1044q0 -92 -29.5 -168t-87 -129.5t-138.5 -83t-185 -29.5q-78 0 -139.5 16.5t-106.5 38.5q-53 25 -92 58l72 122h20q29 -27 66 -47q31 -16 71.5 -30.5 t87.5 -14.5q131 0 193.5 63.5t62.5 203.5v61q-31 -18 -67 -31q-31 -12 -71 -21t-87 -9q-88 0 -163 32.5t-130 99t-86 166t-31 234.5zM307 512q0 -109 18.5 -182.5t50.5 -119.5t75 -66.5t92 -20.5q41 0 76.5 6t62.5 14q31 8 55 21v604q-27 35 -61 61q-29 23 -68 42.5 t-86 19.5q-43 0 -82 -20.5t-68.5 -65.5t-47 -117t-17.5 -176z" />
<glyph unicode="h" horiz-adv-x="1116" d="M154 0v1372l61 62h143v-492q29 29 68 51q35 18 84 34.5t115 16.5q76 0 140 -25.5t110.5 -71.5t72 -110.5t25.5 -140.5v-696h-205v696q0 86 -54.5 140.5t-140.5 54.5q-47 0 -85.5 -19.5t-67.5 -42.5q-35 -27 -62 -61v-768h-204z" />
<glyph unicode="i" horiz-adv-x="512" d="M133 1311q0 53 35 88t88 35t88 -35t35 -88t-35 -88t-88 -35t-88 34.5t-35 88.5zM154 0v1024h204v-1024h-204z" />
<glyph unicode="j" horiz-adv-x="512" d="M-184 -348l51 133h20q14 -16 33 -27q16 -10 36.5 -17t43.5 -7q70 0 112 46t42 138v1106h204v-1106q0 -74 -23.5 -134t-68.5 -103t-107.5 -67t-138.5 -24q-47 0 -84.5 9.5t-64.5 21.5q-33 12 -55 31zM133 1311q0 53 35 88t88 35t88 -35t35 -88t-35 -88t-88 -35t-88 34.5 t-35 88.5z" />
<glyph unicode="k" horiz-adv-x="983" d="M154 0v1372l61 62h143v-881l349 471h235l-369 -492l390 -532h-236l-369 512v-512h-204z" />
<glyph unicode="l" horiz-adv-x="512" d="M154 0v1372l61 62h143v-1434h-204z" />
<glyph unicode="m" horiz-adv-x="1648" d="M154 0v1024h143l20 -123h11q33 39 73 72q35 27 86.5 49t116.5 22q72 0 123 -22.5t84 -48.5q36 -33 59 -72q37 39 84 72q41 27 97.5 49t126.5 22t129 -25.5t103 -71.5t69.5 -110.5t25.5 -140.5v-696h-205v696q0 86 -52 140.5t-122 54.5q-39 0 -73.5 -16.5t-61.5 -34.5 q-33 -23 -59 -52v-788h-205v696q0 86 -52 140.5t-122 54.5q-39 0 -74 -19.5t-61 -42.5q-33 -27 -60 -61v-768h-204z" />
<glyph unicode="n" horiz-adv-x="1116" d="M154 0v1024h143l20 -123h11q29 39 71 72q37 27 92.5 49t133.5 22q76 0 140 -25.5t110.5 -71.5t72 -110.5t25.5 -140.5v-696h-205v696q0 86 -54.5 140.5t-140.5 54.5q-47 0 -85.5 -19.5t-67.5 -42.5q-35 -27 -62 -61v-768h-204z" />
<glyph unicode="o" horiz-adv-x="1085" d="M102 512q0 268 120 400t321 132q100 0 181 -32.5t138.5 -99t89 -166t31.5 -234.5t-31.5 -234.5t-89 -166t-138.5 -99t-181 -32.5q-201 0 -321 132t-120 400zM307 512q0 -109 18.5 -182.5t50.5 -119.5t75 -66.5t92 -20.5t92 20.5t74.5 66.5t50 119.5t18.5 182.5 q0 106 -18.5 181t-50 121t-74.5 66.5t-92 20.5t-92 -20.5t-75 -66.5t-50.5 -121t-18.5 -181z" />
<glyph unicode="p" horiz-adv-x="1095" d="M154 -410v1434h143l20 -123h11q29 39 71 72q37 27 92.5 49t133.5 22q74 0 140 -32.5t116.5 -99t81 -166t30.5 -234.5t-30.5 -234.5t-86 -166t-130 -99t-162.5 -32.5q-47 0 -88 9t-72 21q-37 12 -66 31v-389l-61 -62h-143zM358 164q25 -12 56 -21q27 -8 61.5 -14t77.5 -6 q49 0 92 20.5t75 66.5t50 119.5t18 182.5q0 104 -17 176t-47 117t-69 65.5t-82 20.5q-47 0 -85.5 -19.5t-67.5 -42.5q-35 -27 -62 -61v-604z" />
<glyph unicode="q" horiz-adv-x="1095" d="M102 512q0 135 31 234.5t81 166t116.5 99t140.5 32.5q78 0 133 -22.5t92 -48.5q43 -33 72 -72h10l21 123h143v-1434h-143l-62 62v389q-31 -18 -67 -31q-31 -12 -71 -21t-87 -9q-88 0 -163 32.5t-130 99t-86 166t-31 234.5zM307 512q0 -109 18.5 -182.5t50.5 -119.5 t75 -66.5t92 -20.5q41 0 76.5 6t62.5 14q31 8 55 21v604q-27 35 -61 61q-29 23 -68 42.5t-86 19.5q-43 0 -82 -20.5t-68.5 -65.5t-47 -117t-17.5 -176z" />
<glyph unicode="r" horiz-adv-x="747" d="M154 0v1024h143l20 -123h11q29 39 69 72q35 27 89.5 49t127.5 22q27 0 51.5 -3t43.5 -7q23 -6 39 -10l-31 -164h-21q-20 4 -43 10q-20 4 -43.5 7.5t-46.5 3.5q-43 0 -80 -19.5t-65 -42.5q-33 -27 -60 -61v-758h-204z" />
<glyph unicode="s" horiz-adv-x="942" d="M72 92l71 123h21q31 -27 72 -47q35 -16 84 -30.5t110 -14.5q131 0 183.5 41t52.5 102q0 55 -42 89t-106.5 58.5t-138.5 47t-138.5 57.5t-106.5 88t-42 142q0 131 94.5 213.5t294.5 82.5q86 0 151.5 -17t112.5 -40q53 -25 95 -55l-72 -123h-20q-33 25 -70 45 q-33 16 -78 31.5t-98 15.5q-109 0 -157 -40t-48 -93q0 -55 42 -89t106.5 -58.5t138 -47t138 -57.5t106.5 -89t42 -140q0 -70 -23.5 -126.5t-74.5 -96t-130.5 -62t-190.5 -22.5q-92 0 -164 16t-119 39q-55 25 -96 57z" />
<glyph unicode="t" horiz-adv-x="819" d="M41 881v123l266 266h92v-246h256v-143h-256v-574q0 -92 42 -138t112 -46q35 0 65.5 12t55.5 29q29 18 53 41h21l71 -123q-37 -29 -82 -51q-39 -20 -91 -35.5t-114 -15.5q-78 0 -139 23.5t-106 66.5t-68.5 103t-23.5 134v574h-154z" />
<glyph unicode="u" horiz-adv-x="1126" d="M154 328v696h204v-696q0 -86 54.5 -140.5t140.5 -54.5q47 0 86 19.5t68 42.5q35 27 61 61v768h205v-1024h-144l-20 123h-10q-29 -41 -72 -72q-37 -29 -92 -50t-133 -21t-141.5 25.5t-109.5 71.5t-71.5 109.5t-25.5 141.5z" />
<glyph unicode="v" horiz-adv-x="962" d="M31 1024h205l215 -676q8 -23 12 -47.5t8 -46.5q4 -25 6 -49h8q2 25 7 49q4 23 8 47.5t12 46.5l215 676h205l-328 -1024h-246z" />
<glyph unicode="w" horiz-adv-x="1454" d="M31 1024h194l164 -625q6 -23 9 -47t8 -43q2 -23 4 -43h8q0 20 4 43q4 18 8 43t10 47l164 625h246l164 -625q6 -23 9 -47t7 -43q4 -23 6 -43h8q0 20 5 43q4 41 16 90l164 625h194l-266 -1024h-225l-174 645q-6 18 -10.5 43t-8.5 47q-4 25 -8 53h-8q-4 -29 -8 -53 q-4 -23 -9.5 -47t-9.5 -43l-174 -645h-225z" />
<glyph unicode="x" horiz-adv-x="942" d="M31 0l317 522l-307 502h225l164 -287q6 -12 13.5 -26.5t11.5 -26.5q6 -14 12 -29h8q6 14 12 29q4 12 10.5 26.5t14.5 26.5l164 287h225l-307 -502l317 -522h-225l-174 297q-16 27 -27 53q-6 14 -10 29h-8q-4 -14 -10 -29q-10 -27 -27 -53l-174 -297h-225z" />
<glyph unicode="y" horiz-adv-x="972" d="M31 1024h205l225 -676q8 -23 15 -51.5t13 -52.5q8 -29 15 -60h8q4 31 12 60q6 25 13.5 53.5t13.5 50.5l186 676h205l-328 -1167q-35 -123 -120.5 -205t-217.5 -82q-47 0 -84.5 9t-64.5 22q-33 12 -55 30l51 133h20q14 -16 33 -26q16 -10 36.5 -17.5t43.5 -7.5q53 0 95 41 t59 103l41 143h-82z" />
<glyph unicode="z" horiz-adv-x="901" d="M72 0v154l501 727h-501v143h747v-154l-502 -727h512v-143h-757z" />
<glyph unicode="{" horiz-adv-x="665" d="M82 502v143q78 0 116 43t38 152v368q0 123 88 205t249 82h72v-143h-72q-61 0 -97 -37t-36 -107v-368q0 -92 -25.5 -145.5t-56.5 -80.5q-37 -33 -82 -41q45 -10 82 -41q31 -29 56.5 -81t25.5 -144v-368q0 -70 36 -107t97 -37h72v-143h-72q-162 0 -249.5 82t-87.5 205v368 q0 109 -38 152t-116 43z" />
<glyph unicode="|" horiz-adv-x="573" d="M184 -410v1844h205v-1844h-205z" />
<glyph unicode="}" horiz-adv-x="665" d="M20 -205h72q61 0 97 37t36 107v368q0 92 25.5 144.5t56.5 80.5q37 31 82 41q-45 8 -82 41q-31 27 -56.5 80.5t-25.5 145.5v368q0 70 -35.5 107t-97.5 37h-72v143h72q162 0 250 -82t88 -205v-368q0 -109 38 -152t116 -43v-143q-78 0 -116 -43t-38 -152v-368 q0 -123 -88 -205t-250 -82h-72v143z" />
<glyph unicode="~" horiz-adv-x="1003" d="M51 625q12 35 37 69.5t59.5 62t80.5 45t100 17.5q61 0 106 -20.5t83 -46t75 -46t84 -20.5q35 0 62.5 17.5t46 39t27.5 39.5l9 17h19l112 -103q-12 -35 -36.5 -69.5t-59.5 -62t-81 -45t-99 -17.5q-61 0 -106.5 20.5t-83 46t-75.5 46t-83 20.5q-35 0 -62.5 -17.5t-46 -39 t-27.5 -38.5l-10 -18h-18z" />
<glyph unicode="&#xa1;" horiz-adv-x="593" d="M174 -410l41 1065h164l41 -1065h-246zM174 922q0 53 35 87.5t88 34.5t88 -34.5t35 -87.5t-35 -88t-88 -35t-88 35t-35 88z" />
<glyph unicode="&#xa2;" horiz-adv-x="931" d="M102 512q0 231 89.5 360t238.5 162v113h205v-113q53 -10 97 -27.5t75 -33.5q37 -20 63 -41l-71 -123h-21q-31 25 -67 45q-31 16 -71 31.5t-87 15.5q-53 0 -98 -20.5t-78 -66.5t-51.5 -121t-18.5 -181q0 -215 72 -302t194 -87q47 0 87 14.5t71 30.5q37 20 68 47h20 l72 -123q-31 -23 -70 -45q-35 -18 -81 -35.5t-105 -25.5v-129h-205v137q-154 35 -241 162t-87 356z" />
<glyph unicode="&#xa3;" horiz-adv-x="972" d="M51 0v143q41 16 76 62q29 39 53.5 111.5t24.5 195.5v164h-133v143h133v287q0 74 27.5 137.5t74.5 110.5t112.5 73.5t143.5 26.5q86 0 148.5 -17.5t105.5 -39.5q49 -25 84 -56l-72 -122h-20q-25 25 -59 45q-29 16 -71 31.5t-95 15.5q-70 0 -122 -56.5t-52 -148.5v-287h276 v-143h-276v-164q0 -117 -22.5 -187.5t-49.5 -111.5q-33 -47 -72 -70h686v-143h-901z" />
<glyph unicode="&#xa4;" horiz-adv-x="1177" d="M41 348v123h164v82h-164v123h164v758h368q262 0 387 -117t125 -334q0 -201 -124.5 -315.5t-387.5 -114.5h-163v-82h512v-123h-512v-348h-205v348h-164zM410 676h163q307 0 308 307q0 307 -308 307h-163v-614z" />
<glyph unicode="&#xa5;" horiz-adv-x="1085" d="M0 1434h215l287 -625q8 -20 15 -40.5t11 -39.5q6 -23 11 -43h8q4 20 10 43q4 18 10 38.5t17 41.5l286 625h215l-305 -666h172v-143h-237l-51 -113h288v-143h-307v-369h-205v369h-307v143h289l-51 113h-238v143h172z" />
<glyph unicode="&#xa6;" horiz-adv-x="573" d="M184 369h205v-779h-205v779zM184 655v779h205v-779h-205z" />
<glyph unicode="&#xa7;" d="M92 543q0 98 39 175t115 124q-59 41 -96 101.5t-37 152.5q0 162 106.5 260t323.5 98q86 0 151.5 -17.5t112.5 -39.5q53 -25 94 -56l-72 -122h-20q-33 25 -70 45q-33 16 -78 31.5t-98 15.5q-123 0 -184.5 -54.5t-61.5 -140.5q0 -72 47.5 -116t118 -77.5t152.5 -64.5 t152.5 -77t117.5 -114.5t47 -174.5q0 -207 -149 -304q57 -41 93 -100t36 -149q0 -170 -108.5 -269.5t-331.5 -99.5q-92 0 -164 16.5t-119 38.5q-55 25 -96 58l71 122h21q31 -27 71 -47q35 -16 84.5 -30.5t110.5 -14.5q131 0 193.5 56.5t62.5 148.5q0 72 -47 116t-117.5 77.5 t-152.5 64.5t-153 77t-118 113.5t-47 176.5zM297 563q0 -57 27.5 -100t73.5 -76t105.5 -57.5t121.5 -42.5q61 23 97 73t36 111q0 57 -29 100t-75 76t-104.5 58t-119.5 43q-61 -23 -97 -73t-36 -112z" />
<glyph unicode="&#xa8;" horiz-adv-x="624" d="M20 1270q0 49 32 80.5t81 31.5t81 -31.5t32 -80.5t-32 -81t-81 -32t-81 32t-32 81zM379 1270q0 49 31.5 80.5t81.5 31.5q49 0 80.5 -31.5t31.5 -80.5t-31.5 -81t-80.5 -32t-81 32t-32 81z" />
<glyph unicode="&#xa9;" horiz-adv-x="1761" d="M82 717q0 168 58.5 311t164 246.5t253 162t323.5 58.5t323.5 -58.5t253 -162t163.5 -246.5t58 -311q0 -170 -58 -312.5t-163.5 -246t-253 -161.5t-323.5 -58t-323.5 58t-253 161.5t-164 246t-58.5 312.5zM266 717q0 -139 47 -255t130 -201t195 -132t243 -47t242.5 47 t194.5 132t130 201t47 255q0 137 -47 253.5t-130 201.5t-194.5 132.5t-242.5 47.5t-243 -47.5t-195 -132.5t-130 -201.5t-47 -253.5zM512 717q0 115 27.5 202t78 144t120 86t153.5 29q66 0 121 -16.5t94 -35.5q45 -23 82 -51l-62 -102h-18q-27 18 -59 35q-29 14 -64 25 t-74 11q-92 0 -153.5 -75.5t-61.5 -251.5t63.5 -252t172.5 -76q39 0 73.5 10.5t63.5 24.5q33 16 59 37h19l61 -103q-37 -29 -82 -51q-39 -20 -94 -35.5t-121 -15.5q-186 0 -292.5 115t-106.5 346z" />
<glyph unicode="&#xaa;" horiz-adv-x="737" d="M72 932q0 100 73.5 162.5t243.5 62.5h92v51q0 53 -35.5 88t-97.5 35q-39 0 -67.5 -10t-47.5 -21q-23 -14 -38 -30h-21l-53 92q29 25 67 45q33 16 81 31.5t110 15.5q139 0 213 -68.5t74 -177.5v-471h-142l-12 82h-10q-18 -29 -45 -51q-23 -20 -57.5 -35.5t-80.5 -15.5 q-117 0 -182 61.5t-65 153.5zM256 932q0 -39 27.5 -65.5t74.5 -26.5q27 0 49.5 9t38.5 21q20 12 35 31v133h-92q-70 0 -101.5 -27.5t-31.5 -74.5z" />
<glyph unicode="&#xab;" horiz-adv-x="972" d="M20 512l441 512l133 -123l-328 -389l328 -389l-133 -123zM420 512l379 440l133 -123l-266 -317l266 -317l-133 -123z" />
<glyph unicode="&#xac;" horiz-adv-x="942" d="M61 676v164h820v-348h-185v184h-635z" />
<glyph unicode="&#xad;" horiz-adv-x="901" d="M61 594v164h779v-164h-779z" />
<glyph unicode="&#xae;" horiz-adv-x="1761" d="M82 717q0 168 58.5 311t164 246.5t253 162t323.5 58.5t323.5 -58.5t253 -162t163.5 -246.5t58 -311q0 -170 -58 -312.5t-163.5 -246t-253 -161.5t-323.5 -58t-323.5 58t-253 161.5t-164 246t-58.5 312.5zM266 717q0 -139 47 -255t130 -201t195 -132t243 -47t242.5 47 t194.5 132t130 201t47 255q0 137 -47 253.5t-130 201.5t-194.5 132.5t-242.5 47.5t-243 -47.5t-195 -132.5t-130 -201.5t-47 -253.5zM573 276v881h299q193 0 281 -78t88 -209q0 -100 -53 -166.5t-131 -89.5l205 -338h-195l-184 308h-125v-308h-185zM758 717h114 q100 0 142.5 38t42.5 115q0 78 -42 116t-143 38h-114v-307z" />
<glyph unicode="&#xaf;" horiz-adv-x="634" d="M41 1208v144h553v-144h-553z" />
<glyph unicode="&#xb0;" horiz-adv-x="778" d="M41 1106q0 76 25.5 140.5t71.5 110.5t109.5 71.5t141.5 25.5q76 0 140.5 -25.5t110.5 -71.5t71.5 -110.5t25.5 -140.5q0 -78 -25.5 -141.5t-71.5 -109.5t-110.5 -71.5t-140.5 -25.5q-78 0 -141.5 25.5t-109.5 71.5t-71.5 109.5t-25.5 141.5zM225 1106q0 -109 47 -162 t117 -53t117 53t47 162t-47 162t-117 53t-117 -53.5t-47 -161.5z" />
<glyph unicode="&#xb1;" horiz-adv-x="1003" d="M82 195v163h338v277h-338v164h338v338h164v-338h338v-164h-338v-277h338v-163h-840z" />
<glyph unicode="&#xb2;" horiz-adv-x="675" d="M72 737v82q0 66 25.5 112t64.5 78.5t84 55t84 45.5t64.5 47.5t25.5 61.5q0 113 -117 112q-37 0 -65.5 -10t-47.5 -21q-23 -14 -36 -30h-21l-53 92q29 25 67 45q33 16 81 31.5t110 15.5q123 0 194.5 -67.5t71.5 -167.5q0 -59 -25.5 -100.5t-64.5 -71t-84 -51t-84 -41 t-64.5 -42t-25.5 -53.5h348v-123h-532z" />
<glyph unicode="&#xb3;" horiz-adv-x="657" d="M41 809l53 92h21q16 -18 39 -31q18 -12 46.5 -21t67.5 -9q70 0 101.5 27.5t31.5 74.5t-32.5 74.5t-110.5 27.5h-135v103l246 164h-295v123h479v-134l-225 -133q123 0 190.5 -62.5t67.5 -162.5q0 -92 -74 -158.5t-213 -66.5q-61 0 -109.5 14t-80.5 31q-39 20 -68 47z" />
<glyph unicode="&#xb4;" horiz-adv-x="358" d="M20 1126l93 308h225l-184 -308h-134z" />
<glyph unicode="&#xb5;" horiz-adv-x="1126" d="M154 -410v1434h204v-696q0 -86 54.5 -140.5t140.5 -54.5q47 0 86 15.5t68 35.5q35 23 61 52v788h205v-1024h-144l-20 102h-10q-35 -35 -76 -61q-35 -23 -84 -42t-107 -19q-39 0 -70.5 9t-53.5 21q-27 12 -50 31v-389l-61 -62h-143z" />
<glyph unicode="&#xb6;" horiz-adv-x="1157" d="M51 1014q0 88 33 164.5t88 133t130 89.5t159 33h676v-144h-164v-1700h-185v1700h-143v-1700h-184v1004q-84 0 -159 32.5t-130 89t-88 133.5t-33 165z" />
<glyph unicode="&#xb7;" horiz-adv-x="593" d="M174 717q0 53 35 88t88 35t88 -35t35 -88t-35 -88t-88 -35t-88 35t-35 88z" />
<glyph unicode="&#xb8;" horiz-adv-x="399" d="M20 -348l33 82h19q-2 0 25.5 -15.5t66.5 -15.5t60.5 20.5t21.5 51.5t-22.5 51t-69.5 20h-82v195h123v-102q86 0 135 -47.5t49 -116.5q0 -70 -51.5 -117t-143.5 -47q-39 0 -68.5 6t-52.5 14q-25 8 -43 21z" />
<glyph unicode="&#xb9;" horiz-adv-x="665" d="M72 1270l194 164h174v-574h154v-123h-492v123h154v389l-123 -71z" />
<glyph unicode="&#xba;" horiz-adv-x="798" d="M72 1085q0 178 90 273.5t237 95.5t237.5 -95t90.5 -274q0 -178 -90 -273t-238 -95q-147 0 -237 95t-90 273zM256 1085q0 -70 11.5 -116.5t29.5 -75.5t45 -41t57 -12q31 0 57.5 12t45 41t30 76t11.5 116q0 137 -41.5 191.5t-102.5 54.5t-102 -54t-41 -192z" />
<glyph unicode="&#xbb;" horiz-adv-x="972" d="M41 195l266 317l-266 317l133 123l379 -440l-379 -440zM379 123l328 389l-328 389l133 123l440 -512l-440 -512z" />
<glyph unicode="&#xbc;" horiz-adv-x="1556" d="M72 1270l194 164h174v-574h154v-123h-492v123h154v389l-123 -71zM215 0l963 1434h225l-963 -1434h-225zM850 143v123l348 430h184v-430h103v-123h-103v-143h-184v143h-348zM1014 266h184v185q0 27 6 55q2 16 6 33h-8q-4 -18 -12 -35q-6 -14 -13.5 -29.5t-13.5 -23.5z" />
<glyph unicode="&#xbd;" horiz-adv-x="1536" d="M72 1270l194 164h174v-574h154v-123h-492v123h154v389l-123 -71zM215 0l963 1434h225l-963 -1434h-225zM932 0v82q0 66 25.5 112t64.5 78.5t84 55t84 45t64.5 47t25.5 61.5q0 113 -117 113q-37 0 -65.5 -10.5t-46.5 -20.5q-23 -14 -37 -31h-21l-53 93q29 25 68 45 q33 16 81 31.5t109 15.5q123 0 194.5 -68t71.5 -168q0 -59 -25.5 -100t-64.5 -70.5t-84 -51t-84 -41t-64.5 -42t-25.5 -53.5h348v-123h-532z" />
<glyph unicode="&#xbe;" horiz-adv-x="1536" d="M72 809l53 92h20q16 -18 39 -31q18 -12 47 -21t68 -9q70 0 101.5 27.5t31.5 74.5t-32.5 74.5t-110.5 27.5h-135v103l245 164h-295v123h480v-134l-226 -133q123 0 190.5 -62.5t67.5 -162.5q0 -92 -73.5 -158.5t-212.5 -66.5q-61 0 -109.5 14t-81.5 31q-39 20 -67 47z M195 0l962 1434h225l-962 -1434h-225zM829 143v123l349 430h184v-430h102v-123h-102v-143h-184v143h-349zM993 266h185v185q0 27 6 55q2 16 6 33h-8q-4 -18 -13 -35q-6 -14 -13 -29.5t-13 -23.5z" />
<glyph unicode="&#xbf;" horiz-adv-x="942" d="M82 -41q0 86 29.5 147.5t73.5 107.5t95.5 83t95.5 76t73.5 86t29.5 114v82h185v-82q0 -86 -28 -147t-70 -108.5t-91 -85t-91 -78.5t-69.5 -92.5t-27.5 -122.5q0 -92 72.5 -159t203.5 -67q70 0 123 14.5t90 30.5q43 20 74 47h20l72 -122q-43 -33 -100 -58 q-51 -23 -125 -39t-174 -16q-111 0 -197 28.5t-144.5 81t-89 124t-30.5 155.5zM449 922q0 53 34.5 87.5t87.5 34.5t88 -34.5t35 -87.5t-34.5 -88t-88.5 -35q-53 0 -87.5 34.5t-34.5 88.5z" />
<glyph unicode="&#xc0;" horiz-adv-x="1167" d="M31 0l420 1434h266l420 -1434h-205l-113 369h-471l-112 -369h-205zM31 0zM342 1844h226l92 -308h-133zM389 512h389l-164 563q-8 23 -12 48.5t-8 47.5q-4 25 -6 48h-8q-2 -25 -7 -50q-4 -23 -9 -47t-11 -47z" />
<glyph unicode="&#xc1;" horiz-adv-x="1167" d="M31 0l420 1434h266l420 -1434h-205l-113 369h-471l-112 -369h-205zM31 0zM389 512h389l-164 563q-8 23 -12 48.5t-8 47.5q-4 25 -6 48h-8q-2 -25 -7 -50q-4 -23 -9 -47t-11 -47zM485 1536l93 308h225l-184 -308h-134z" />
<glyph unicode="&#xc2;" horiz-adv-x="1167" d="M31 0l420 1434h266l420 -1434h-205l-113 369h-471l-112 -369h-205zM31 0zM297 1536l215 266h143l215 -266h-133l-153 133l-154 -133h-133zM389 512h389l-164 563q-8 23 -12 48.5t-8 47.5q-4 25 -6 48h-8q-2 -25 -7 -50q-4 -23 -9 -47t-11 -47z" />
<glyph unicode="&#xc3;" horiz-adv-x="1167" d="M31 0l420 1434h266l420 -1434h-205l-113 369h-471l-112 -369h-205zM31 0zM288 1597q12 35 27.5 67t38.5 55.5t51.5 37.5t67.5 14t63.5 -14t44 -31.5t37 -32t39.5 -14.5q23 0 41.5 12.5t30.5 27.5t17 29l5 13h19l82 -51q-23 -70 -66 -122t-119 -52q-39 0 -63.5 14.5 t-44 31.5t-36.5 31.5t-40 14.5t-41 -13.5t-30.5 -28.5t-17.5 -28l-5 -12h-19zM389 512h389l-164 563q-8 23 -12 48.5t-8 47.5q-4 25 -6 48h-8q-2 -25 -7 -50q-4 -23 -9 -47t-11 -47z" />
<glyph unicode="&#xc4;" horiz-adv-x="1167" d="M31 0l420 1434h266l420 -1434h-205l-113 369h-471l-112 -369h-205zM31 0zM286 1659q0 49 32 80.5t81 31.5t81 -31.5t32 -80.5t-32 -81t-81 -32t-81 32t-32 81zM389 512h389l-164 563q-8 23 -12 48.5t-8 47.5q-4 25 -6 48h-8q-2 -25 -7 -50q-4 -23 -9 -47t-11 -47z M645 1659q0 49 31.5 80.5t81.5 31.5q49 0 80.5 -31.5t31.5 -80.5t-31.5 -81t-80.5 -32t-81 32t-32 81z" />
<glyph unicode="&#xc5;" horiz-adv-x="1167" d="M31 0l420 1434h266l420 -1434h-205l-113 369h-471l-112 -369h-205zM31 0zM378 1710q0 86 56.5 140.5t148.5 54.5t148.5 -54.5t56.5 -140.5t-56.5 -140t-148.5 -54t-148.5 54t-56.5 140zM389 512h389l-164 563q-8 23 -12 48.5t-8 47.5q-4 25 -6 48h-8q-2 -25 -7 -50 q-4 -23 -9 -47t-11 -47zM501 1710q0 -47 26 -69.5t56 -22.5q31 0 56.5 22.5t25.5 69.5t-25.5 70t-56.5 23t-56.5 -22.5t-25.5 -70.5z" />
<glyph unicode="&#xc6;" horiz-adv-x="1669" d="M-41 0l604 1434h1045v-144h-594v-471h471v-143h-471v-533h594v-143h-799v410h-471l-174 -410h-205zM399 553h410v737h-102z" />
<glyph unicode="&#xc7;" horiz-adv-x="1054" d="M113 0zM113 717q0 199 36.5 339t104.5 229t162 129t209 40q86 0 151.5 -17.5t112.5 -39.5q53 -25 94 -56l-72 -122h-20q-33 25 -70 45q-33 16 -78 31.5t-98 15.5q-70 0 -129 -30t-103 -98.5t-70 -183t-26 -282.5q0 -170 26 -284t72 -182.5t109.5 -98t141.5 -29.5 q53 0 98 14.5t78 30.5q37 20 69 47h21l72 -123q-41 -33 -95 -57q-47 -23 -112.5 -39t-151.5 -16q-123 0 -221 39.5t-168 129t-106.5 228.5t-36.5 340zM471 -348l33 82h19q-2 0 25.5 -15.5t66.5 -15.5t60.5 20.5t21.5 51.5t-22.5 51t-69.5 20h-82v195h123v-102 q86 0 135 -47.5t49 -116.5q0 -70 -51.5 -117t-143.5 -47q-39 0 -68.5 6t-52.5 14q-25 8 -43 21z" />
<glyph unicode="&#xc8;" d="M184 0v1434h799v-144h-594v-471h471v-143h-471v-533h594v-143h-799zM184 0zM368 1844h226l92 -308h-133z" />
<glyph unicode="&#xc9;" d="M184 0v1434h799v-144h-594v-471h471v-143h-471v-533h594v-143h-799zM184 0zM471 1536l93 308h225l-184 -308h-134z" />
<glyph unicode="&#xca;" d="M184 0v1434h799v-144h-594v-471h471v-143h-471v-533h594v-143h-799zM184 0zM301 1557l215 266h143l215 -266h-133l-153 133l-154 -133h-133z" />
<glyph unicode="&#xcb;" d="M184 0v1434h799v-144h-594v-471h471v-143h-471v-533h594v-143h-799zM184 0zM290 1680q0 49 32 80.5t81 31.5t81 -31.5t32 -80.5t-32 -81t-81 -32t-81 32t-32 81zM649 1680q0 49 31.5 80.5t81.5 31.5q49 0 80.5 -31.5t31.5 -80.5t-31.5 -81t-80.5 -32t-81 32t-32 81z" />
<glyph unicode="&#xcc;" horiz-adv-x="569" d="M40 1844h226l92 -308h-133zM41 0zM182 0v1434h205v-1434h-205z" />
<glyph unicode="&#xcd;" horiz-adv-x="567" d="M184 0v1434h205v-1434h-205zM184 0zM208 1536l93 308h225l-184 -308h-134z" />
<glyph unicode="&#xce;" horiz-adv-x="552" d="M-8 1557l215 266h143l215 -266h-133l-153 133l-154 -133h-133zM0 0zM176 0v1434h205v-1434h-205z" />
<glyph unicode="&#xcf;" horiz-adv-x="532" d="M-29 1680q0 49 32 80.5t81 31.5t81 -31.5t32 -80.5t-32 -81t-81 -32t-81 32t-32 81zM0 0zM166 0v1434h205v-1434h-205zM330 1680q0 49 31.5 80.5t81.5 31.5q49 0 80.5 -31.5t31.5 -80.5t-31.5 -81t-80.5 -32t-81 32t-32 81z" />
<glyph unicode="&#xd0;" horiz-adv-x="1198" d="M72 655v164h112v615h308q145 0 256.5 -40t186.5 -126t112.5 -222.5t37.5 -328.5q0 -193 -37.5 -329t-112.5 -222t-186.5 -126t-256.5 -40h-308v655h-112zM389 143h103q92 0 164.5 29t121.5 96.5t76 177t27 271.5t-27 271.5t-76 177t-121.5 96t-164.5 28.5h-103v-471h236 v-164h-236v-512z" />
<glyph unicode="&#xd1;" horiz-adv-x="1290" d="M184 0v1434h226l430 -912q10 -23 20 -53.5t21 -56.5q10 -33 20 -64h8q-2 31 -4 64q-2 27 -3 57.5t-1 52.5v912h205v-1434h-225l-430 911q-10 23 -20.5 52.5t-20.5 58.5q-10 31 -21 63h-8q2 -33 4 -63q2 -29 3 -58.5t1 -52.5v-911h-205zM184 0zM350 1597q12 35 27.5 67 t38.5 55.5t51.5 37.5t67.5 14t63.5 -14t44 -31.5t37 -32t39.5 -14.5q23 0 41.5 12.5t30.5 27.5t17 29l5 13h19l82 -51q-23 -70 -66 -122t-119 -52q-39 0 -63.5 14.5t-44 31.5t-36.5 31.5t-40 14.5t-41 -13.5t-30.5 -28.5t-17.5 -28l-5 -12h-19z" />
<glyph unicode="&#xd2;" horiz-adv-x="1228" d="M113 0zM113 717q0 199 36.5 339t102 229t159 129t203.5 40q111 0 204 -40t158.5 -129t102.5 -229t37 -339q0 -201 -37 -340t-102.5 -228.5t-158.5 -129t-204 -39.5t-204 39.5t-158.5 129t-102 228.5t-36.5 340zM317 717q0 -170 25 -284t67 -182.5t95 -98t110 -29.5 t110.5 29.5t95.5 98t66.5 182.5t24.5 284q0 168 -24.5 282.5t-66.5 183t-95 98.5t-111 30q-57 0 -110 -30t-95 -98.5t-67 -183t-25 -282.5zM393 1844h226l92 -308h-133z" />
<glyph unicode="&#xd3;" horiz-adv-x="1228" d="M113 0zM113 717q0 199 36.5 339t102 229t159 129t203.5 40q111 0 204 -40t158.5 -129t102.5 -229t37 -339q0 -201 -37 -340t-102.5 -228.5t-158.5 -129t-204 -39.5t-204 39.5t-158.5 129t-102 228.5t-36.5 340zM317 717q0 -170 25 -284t67 -182.5t95 -98t110 -29.5 t110.5 29.5t95.5 98t66.5 182.5t24.5 284q0 168 -24.5 282.5t-66.5 183t-95 98.5t-111 30q-57 0 -110 -30t-95 -98.5t-67 -183t-25 -282.5zM516 1536l93 308h225l-184 -308h-134z" />
<glyph unicode="&#xd4;" horiz-adv-x="1228" d="M113 0zM113 717q0 199 36.5 339t102 229t159 129t203.5 40q111 0 204 -40t158.5 -129t102.5 -229t37 -339q0 -201 -37 -340t-102.5 -228.5t-158.5 -129t-204 -39.5t-204 39.5t-158.5 129t-102 228.5t-36.5 340zM317 717q0 -170 25 -284t67 -182.5t95 -98t110 -29.5 t110.5 29.5t95.5 98t66.5 182.5t24.5 284q0 168 -24.5 282.5t-66.5 183t-95 98.5t-111 30q-57 0 -110 -30t-95 -98.5t-67 -183t-25 -282.5zM328 1557l215 266h143l215 -266h-133l-153 133l-154 -133h-133z" />
<glyph unicode="&#xd5;" horiz-adv-x="1228" d="M113 0zM113 717q0 199 36.5 339t102 229t159 129t203.5 40q111 0 204 -40t158.5 -129t102.5 -229t37 -339q0 -201 -37 -340t-102.5 -228.5t-158.5 -129t-204 -39.5t-204 39.5t-158.5 129t-102 228.5t-36.5 340zM317 717q0 -170 25 -284t67 -182.5t95 -98t110 -29.5 t110.5 29.5t95.5 98t66.5 182.5t24.5 284q0 168 -24.5 282.5t-66.5 183t-95 98.5t-111 30q-57 0 -110 -30t-95 -98.5t-67 -183t-25 -282.5zM319 1618q12 35 27.5 67t38.5 55.5t51.5 37.5t67.5 14t63.5 -14t44 -31.5t37 -32t39.5 -14.5q23 0 41.5 12.5t30.5 27.5t17 29l5 13 h19l82 -51q-23 -70 -66 -122t-119 -52q-39 0 -63.5 14.5t-44 31.5t-36.5 31.5t-40 14.5t-41 -13.5t-30.5 -28.5t-17.5 -28l-5 -12h-19z" />
<glyph unicode="&#xd6;" horiz-adv-x="1228" d="M113 0zM113 717q0 199 36.5 339t102 229t159 129t203.5 40q111 0 204 -40t158.5 -129t102.5 -229t37 -339q0 -201 -37 -340t-102.5 -228.5t-158.5 -129t-204 -39.5t-204 39.5t-158.5 129t-102 228.5t-36.5 340zM317 717q0 -170 25 -284t67 -182.5t95 -98t110 -29.5 t110.5 29.5t95.5 98t66.5 182.5t24.5 284q0 168 -24.5 282.5t-66.5 183t-95 98.5t-111 30q-57 0 -110 -30t-95 -98.5t-67 -183t-25 -282.5zM317 1680q0 49 32 80.5t81 31.5t81 -31.5t32 -80.5t-32 -81t-81 -32t-81 32t-32 81zM676 1680q0 49 31.5 80.5t81.5 31.5 q49 0 80.5 -31.5t31.5 -80.5t-31.5 -81t-80.5 -32t-81 32t-32 81z" />
<glyph unicode="&#xd7;" horiz-adv-x="894" d="M92 436l240 240l-240 239l117 115l240 -237l237 237l117 -115l-240 -239l240 -240l-117 -114l-237 237l-240 -237z" />
<glyph unicode="&#xd8;" horiz-adv-x="1228" d="M113 717q0 199 36.5 339t102 229t159 129t203.5 40q170 0 287 -92l41 72h164l-105 -185q55 -88 85 -220t30 -312q0 -201 -37 -340t-102.5 -228.5t-158.5 -129t-204 -39.5q-84 0 -155.5 22.5t-130.5 69.5l-41 -72h-164l104 182q-55 90 -84.5 221.5t-29.5 313.5zM317 717 q0 -98 8.5 -177t24.5 -143l459 803q-41 59 -91 85t-104 26q-57 0 -110 -30t-95 -98.5t-67 -183t-25 -282.5zM420 231q41 -59 91 -83.5t103 -24.5q57 0 110.5 29.5t95.5 98t66.5 182.5t24.5 284q0 98 -8 177t-24 140z" />
<glyph unicode="&#xd9;" horiz-adv-x="1269" d="M174 0zM174 451v983h205v-983q0 -170 69.5 -249t186.5 -79t186.5 79t69.5 249v983h205v-983q0 -231 -119 -351t-342 -120t-342 119.5t-119 351.5zM413 1803h226l92 -308h-133z" />
<glyph unicode="&#xda;" horiz-adv-x="1269" d="M174 0zM174 451v983h205v-983q0 -170 69.5 -249t186.5 -79t186.5 79t69.5 249v983h205v-983q0 -231 -119 -351t-342 -120t-342 119.5t-119 351.5zM557 1495l93 308h225l-184 -308h-134z" />
<glyph unicode="&#xdb;" horiz-adv-x="1269" d="M174 0zM174 451v983h205v-983q0 -170 69.5 -249t186.5 -79t186.5 79t69.5 249v983h205v-983q0 -231 -119 -351t-342 -120t-342 119.5t-119 351.5zM348 1557l215 266h143l215 -266h-133l-153 133l-154 -133h-133z" />
<glyph unicode="&#xdc;" horiz-adv-x="1269" d="M174 0zM174 451v983h205v-983q0 -170 69.5 -249t186.5 -79t186.5 79t69.5 249v983h205v-983q0 -231 -119 -351t-342 -120t-342 119.5t-119 351.5zM337 1680q0 49 32 80.5t81 31.5t81 -31.5t32 -80.5t-32 -81t-81 -32t-81 32t-32 81zM696 1680q0 49 31.5 80.5t81.5 31.5 q49 0 80.5 -31.5t31.5 -80.5t-31.5 -81t-80.5 -32t-81 32t-32 81z" />
<glyph unicode="&#xdd;" horiz-adv-x="1085" d="M0 0zM0 1434h215l287 -625q8 -20 15 -40.5t11 -39.5q6 -23 11 -43h8q4 20 10 43q4 18 10 38.5t17 41.5l286 625h215l-440 -963v-471h-205v471zM464 1495l93 308h225l-184 -308h-134z" />
<glyph unicode="&#xde;" horiz-adv-x="1259" d="M184 -41v1516h205v-164h184q287 0 440.5 -153.5t153.5 -440.5t-153.5 -440.5t-440.5 -153.5h-184v-164h-205zM389 266h184q178 0 284 114t106 337t-105.5 336.5t-284.5 113.5h-184v-901z" />
<glyph unicode="&#xdf;" horiz-adv-x="1269" d="M72 860v144h133v122q0 74 23.5 134.5t68.5 103.5t106.5 66.5t139.5 23.5q178 0 268 -82t90 -205q0 -47 -13.5 -76.5t-28.5 -54t-27.5 -50t-12.5 -64.5q0 -53 27.5 -94.5t71 -77t91.5 -70.5t91 -79t70.5 -100.5t27.5 -131.5q0 -178 -106.5 -283.5t-292.5 -105.5 q-53 0 -95 9t-71 21q-35 12 -60 31l52 133h20q14 -16 35 -27q16 -10 41.5 -17t56.5 -7q100 0 157.5 58.5t57.5 166.5q0 59 -26.5 103.5t-66.5 82t-86 74.5t-86 81t-66.5 99.5t-26.5 133.5q0 39 9 67.5t21.5 55t21.5 55t9 67.5q0 61 -40 102.5t-93 41.5q-70 0 -111.5 -46 t-41.5 -139v-1126h-205v860h-133z" />
<glyph unicode="&#xe0;" d="M92 0zM92 297q0 70 24.5 126t77 96t136.5 62.5t202 22.5h164v51q0 123 -57 184.5t-158 61.5q-47 0 -88 -15.5t-71 -31.5q-37 -20 -66 -45h-20l-72 123q39 31 92 55q45 23 106.5 40t139.5 17q88 0 161.5 -28.5t126 -80.5t82 -124t29.5 -156v-655h-143l-21 123h-10 q-29 -41 -72 -72q-37 -29 -92 -50t-133 -21q-162 0 -250 85t-88 232zM280 1434h226l92 -308h-133zM297 297q0 -78 46 -121t138 -43q47 0 86 19.5t68 42.5q35 27 61 61v205h-164q-123 0 -179 -47t-56 -117z" />
<glyph unicode="&#xe1;" d="M92 0zM92 297q0 70 24.5 126t77 96t136.5 62.5t202 22.5h164v51q0 123 -57 184.5t-158 61.5q-47 0 -88 -15.5t-71 -31.5q-37 -20 -66 -45h-20l-72 123q39 31 92 55q45 23 106.5 40t139.5 17q88 0 161.5 -28.5t126 -80.5t82 -124t29.5 -156v-655h-143l-21 123h-10 q-29 -41 -72 -72q-37 -29 -92 -50t-133 -21q-162 0 -250 85t-88 232zM297 297q0 -78 46 -121t138 -43q47 0 86 19.5t68 42.5q35 27 61 61v205h-164q-123 0 -179 -47t-56 -117zM423 1126l93 308h225l-184 -308h-134z" />
<glyph unicode="&#xe2;" d="M92 0zM92 297q0 70 24.5 126t77 96t136.5 62.5t202 22.5h164v51q0 123 -57 184.5t-158 61.5q-47 0 -88 -15.5t-71 -31.5q-37 -20 -66 -45h-20l-72 123q39 31 92 55q45 23 106.5 40t139.5 17q88 0 161.5 -28.5t126 -80.5t82 -124t29.5 -156v-655h-143l-21 123h-10 q-29 -41 -72 -72q-37 -29 -92 -50t-133 -21q-162 0 -250 85t-88 232zM236 1147l215 266h143l215 -266h-133l-153 133l-154 -133h-133zM297 297q0 -78 46 -121t138 -43q47 0 86 19.5t68 42.5q35 27 61 61v205h-164q-123 0 -179 -47t-56 -117z" />
<glyph unicode="&#xe3;" d="M92 0zM92 297q0 70 24.5 126t77 96t136.5 62.5t202 22.5h164v51q0 123 -57 184.5t-158 61.5q-47 0 -88 -15.5t-71 -31.5q-37 -20 -66 -45h-20l-72 123q39 31 92 55q45 23 106.5 40t139.5 17q88 0 161.5 -28.5t126 -80.5t82 -124t29.5 -156v-655h-143l-21 123h-10 q-29 -41 -72 -72q-37 -29 -92 -50t-133 -21q-162 0 -250 85t-88 232zM227 1210q12 35 27.5 67t38.5 55.5t51.5 37.5t67.5 14t63.5 -14t44 -31.5t37 -32t39.5 -14.5q23 0 41.5 12.5t30.5 27.5t17 29l5 13h19l82 -51q-23 -70 -66 -122t-119 -52q-39 0 -63.5 14.5t-44 31.5 t-36.5 31.5t-40 14.5t-41 -13.5t-30.5 -28.5t-17.5 -28l-5 -12h-19zM297 297q0 -78 46 -121t138 -43q47 0 86 19.5t68 42.5q35 27 61 61v205h-164q-123 0 -179 -47t-56 -117z" />
<glyph unicode="&#xe4;" d="M92 0zM92 297q0 70 24.5 126t77 96t136.5 62.5t202 22.5h164v51q0 123 -57 184.5t-158 61.5q-47 0 -88 -15.5t-71 -31.5q-37 -20 -66 -45h-20l-72 123q39 31 92 55q45 23 106.5 40t139.5 17q88 0 161.5 -28.5t126 -80.5t82 -124t29.5 -156v-655h-143l-21 123h-10 q-29 -41 -72 -72q-37 -29 -92 -50t-133 -21q-162 0 -250 85t-88 232zM225 1270q0 49 32 80.5t81 31.5t81 -31.5t32 -80.5t-32 -81t-81 -32t-81 32t-32 81zM297 297q0 -78 46 -121t138 -43q47 0 86 19.5t68 42.5q35 27 61 61v205h-164q-123 0 -179 -47t-56 -117zM584 1270 q0 49 31.5 80.5t81.5 31.5q49 0 80.5 -31.5t31.5 -80.5t-31.5 -81t-80.5 -32t-81 32t-32 81z" />
<glyph unicode="&#xe5;" d="M92 0zM92 297q0 70 24.5 126t77 96t136.5 62.5t202 22.5h164v51q0 123 -57 184.5t-158 61.5q-47 0 -88 -15.5t-71 -31.5q-37 -20 -66 -45h-20l-72 123q39 31 92 55q45 23 106.5 40t139.5 17q88 0 161.5 -28.5t126 -80.5t82 -124t29.5 -156v-655h-143l-21 123h-10 q-29 -41 -72 -72q-37 -29 -92 -50t-133 -21q-162 0 -250 85t-88 232zM297 297q0 -78 46 -121t138 -43q47 0 86 19.5t68 42.5q35 27 61 61v205h-164q-123 0 -179 -47t-56 -117zM317 1341q0 86 56.5 140.5t148.5 54.5t148.5 -54.5t56.5 -140.5t-56.5 -140t-148.5 -54 t-148.5 54t-56.5 140zM440 1341q0 -47 26 -69.5t56 -22.5q31 0 56.5 22.5t25.5 69.5t-25.5 70t-56.5 23t-56.5 -22.5t-25.5 -70.5z" />
<glyph unicode="&#xe6;" horiz-adv-x="1607" d="M92 297q0 70 24.5 126t77 96t136.5 62.5t202 22.5h164v51q0 123 -57 184.5t-158 61.5q-47 0 -88 -15.5t-71 -31.5q-37 -20 -66 -45h-20l-72 123q39 31 92 55q45 23 106.5 40t139.5 17q117 0 192.5 -41.5t114.5 -111.5q53 70 129 111.5t168 41.5q88 0 162.5 -32.5t130 -99 t86.5 -166t31 -234.5v-31l-41 -41h-574q0 -162 68.5 -239.5t177.5 -77.5q47 0 87 14.5t71 30.5q37 20 67 47h21l71 -123q-39 -33 -92 -57q-45 -23 -106.5 -39t-139.5 -16q-100 0 -187 39.5t-146 123.5q-43 -45 -97 -82q-47 -31 -113.5 -56t-152.5 -25q-162 0 -250 85 t-88 232zM297 297q0 -78 46 -121t138 -43q47 0 86 19.5t68 42.5q35 27 61 61v205h-164q-123 0 -179 -47t-56 -117zM901 584h410q0 84 -16.5 144t-44 98t-64.5 56.5t-80 18.5t-80 -18.5t-64.5 -56.5t-44 -98t-16.5 -144z" />
<glyph unicode="&#xe7;" horiz-adv-x="931" d="M102 0zM102 512q0 135 31 234.5t88.5 166t136 99t174.5 32.5q78 0 139.5 -17t106.5 -40q53 -25 92 -55l-71 -123h-21q-31 25 -67 45q-31 16 -71 31.5t-87 15.5q-53 0 -98 -20.5t-78 -66.5t-51.5 -121t-18.5 -181q0 -215 72 -302t194 -87q47 0 87 14.5t71 30.5 q37 20 68 47h20l72 -123q-39 -33 -92 -57q-45 -23 -106.5 -39t-139.5 -16q-207 0 -329 132t-122 400zM393 -348l33 82h19q-2 0 25.5 -15.5t66.5 -15.5t60.5 20.5t21.5 51.5t-22.5 51t-69.5 20h-82v195h123v-102q86 0 135 -47.5t49 -116.5q0 -70 -51.5 -117t-143.5 -47 q-39 0 -68.5 6t-52.5 14q-25 8 -43 21z" />
<glyph unicode="&#xe8;" horiz-adv-x="1034" d="M102 0zM102 512q0 135 31 234.5t87 166t133 99t169 32.5t169 -32.5t133.5 -99t87 -166t30.5 -234.5v-31l-41 -41h-594q0 -162 72 -239.5t194 -77.5q47 0 87 14.5t71 30.5q37 20 68 47h20l72 -123q-39 -33 -92 -57q-45 -23 -106.5 -39t-139.5 -16q-207 0 -329 132 t-122 400zM276 1434h226l92 -308h-133zM307 584h430q0 170 -61.5 243.5t-153.5 73.5t-153.5 -73.5t-61.5 -243.5z" />
<glyph unicode="&#xe9;" horiz-adv-x="1034" d="M102 0zM102 512q0 135 31 234.5t87 166t133 99t169 32.5t169 -32.5t133.5 -99t87 -166t30.5 -234.5v-31l-41 -41h-594q0 -162 72 -239.5t194 -77.5q47 0 87 14.5t71 30.5q37 20 68 47h20l72 -123q-39 -33 -92 -57q-45 -23 -106.5 -39t-139.5 -16q-207 0 -329 132 t-122 400zM307 584h430q0 170 -61.5 243.5t-153.5 73.5t-153.5 -73.5t-61.5 -243.5zM440 1126l93 308h225l-184 -308h-134z" />
<glyph unicode="&#xea;" horiz-adv-x="1034" d="M102 0zM102 512q0 135 31 234.5t87 166t133 99t169 32.5t169 -32.5t133.5 -99t87 -166t30.5 -234.5v-31l-41 -41h-594q0 -162 72 -239.5t194 -77.5q47 0 87 14.5t71 30.5q37 20 68 47h20l72 -123q-39 -33 -92 -57q-45 -23 -106.5 -39t-139.5 -16q-207 0 -329 132 t-122 400zM229 1147l215 266h143l215 -266h-133l-153 133l-154 -133h-133zM307 584h430q0 170 -61.5 243.5t-153.5 73.5t-153.5 -73.5t-61.5 -243.5z" />
<glyph unicode="&#xeb;" horiz-adv-x="1034" d="M102 0zM102 512q0 135 31 234.5t87 166t133 99t169 32.5t169 -32.5t133.5 -99t87 -166t30.5 -234.5v-31l-41 -41h-594q0 -162 72 -239.5t194 -77.5q47 0 87 14.5t71 30.5q37 20 68 47h20l72 -123q-39 -33 -92 -57q-45 -23 -106.5 -39t-139.5 -16q-207 0 -329 132 t-122 400zM219 1270q0 49 32 80.5t81 31.5t81 -31.5t32 -80.5t-32 -81t-81 -32t-81 32t-32 81zM307 584h430q0 170 -61.5 243.5t-153.5 73.5t-153.5 -73.5t-61.5 -243.5zM578 1270q0 49 31.5 80.5t81.5 31.5q49 0 80.5 -31.5t31.5 -80.5t-31.5 -81t-80.5 -32t-81 32t-32 81z " />
<glyph unicode="&#xec;" horiz-adv-x="528" d="M31 1434h225l92 -308h-133zM170 0v1024h205v-1024h-205z" />
<glyph unicode="&#xed;" horiz-adv-x="526" d="M154 0v1024h204v-1024h-204zM178 1126l92 308h226l-185 -308h-133z" />
<glyph unicode="&#xee;" horiz-adv-x="532" d="M-20 1147l215 266h143l215 -266h-133l-154 133l-153 -133h-133zM164 0v1024h205v-1024h-205z" />
<glyph unicode="&#xef;" horiz-adv-x="532" d="M-31 1270q0 49 32 80.5t81 31.5t81 -31.5t32 -80.5t-32 -81t-81 -32t-81 32t-32 81zM164 0v1024h205v-1024h-205zM328 1270q0 49 31.5 80.5t80.5 31.5t81 -31.5t32 -80.5t-32 -81t-81 -32t-80.5 32t-31.5 81z" />
<glyph unicode="&#xf0;" horiz-adv-x="1054" d="M82 461q0 115 30.5 205t82 151.5t120 93t146.5 31.5q109 0 184.5 -32.5t122.5 -110.5q0 119 -37 203.5t-117 138.5l-61 -129l-129 61l61 129q-25 8 -51 14.5t-55 12.5l-113 20l21 144l123 -21q37 -6 71.5 -14t67.5 -19l57 121l131 -59l-57 -121q129 -78 195.5 -225.5 t66.5 -388.5v-205q0 -115 -30.5 -205t-88 -151.5t-136.5 -93t-175 -31.5t-175 31.5t-136.5 93t-88 151.5t-30.5 205zM287 461q0 -176 66.5 -257t158.5 -81t158.5 81t66.5 257q0 168 -66.5 247.5t-158.5 79.5t-158.5 -79.5t-66.5 -247.5z" />
<glyph unicode="&#xf1;" horiz-adv-x="1116" d="M154 0v1024h143l20 -123h11q29 39 71 72q37 27 92.5 49t133.5 22q76 0 140 -25.5t110.5 -71.5t72 -110.5t25.5 -140.5v-696h-205v696q0 86 -54.5 140.5t-140.5 54.5q-47 0 -85.5 -19.5t-67.5 -42.5q-35 -27 -62 -61v-768h-204zM154 0zM282 1231q12 35 27.5 67t38.5 55.5 t51.5 37.5t67.5 14t63.5 -14t44 -31.5t37 -32t39.5 -14.5q23 0 41.5 12.5t30.5 27.5t17 29l5 13h19l82 -51q-23 -70 -66 -122t-119 -52q-39 0 -63.5 14.5t-44 31.5t-36.5 31.5t-40 14.5t-41 -13.5t-30.5 -28.5t-17.5 -28l-5 -12h-19z" />
<glyph unicode="&#xf2;" horiz-adv-x="1085" d="M102 0zM102 512q0 268 120 400t321 132q100 0 181 -32.5t138.5 -99t89 -166t31.5 -234.5t-31.5 -234.5t-89 -166t-138.5 -99t-181 -32.5q-201 0 -321 132t-120 400zM301 1434h226l92 -308h-133zM307 512q0 -109 18.5 -182.5t50.5 -119.5t75 -66.5t92 -20.5t92 20.5 t74.5 66.5t50 119.5t18.5 182.5q0 106 -18.5 181t-50 121t-74.5 66.5t-92 20.5t-92 -20.5t-75 -66.5t-50.5 -121t-18.5 -181z" />
<glyph unicode="&#xf3;" horiz-adv-x="1085" d="M102 0zM102 512q0 268 120 400t321 132q100 0 181 -32.5t138.5 -99t89 -166t31.5 -234.5t-31.5 -234.5t-89 -166t-138.5 -99t-181 -32.5q-201 0 -321 132t-120 400zM307 512q0 -109 18.5 -182.5t50.5 -119.5t75 -66.5t92 -20.5t92 20.5t74.5 66.5t50 119.5t18.5 182.5 q0 106 -18.5 181t-50 121t-74.5 66.5t-92 20.5t-92 -20.5t-75 -66.5t-50.5 -121t-18.5 -181zM464 1126l93 308h225l-184 -308h-134z" />
<glyph unicode="&#xf4;" horiz-adv-x="1085" d="M102 0zM102 512q0 268 120 400t321 132q100 0 181 -32.5t138.5 -99t89 -166t31.5 -234.5t-31.5 -234.5t-89 -166t-138.5 -99t-181 -32.5q-201 0 -321 132t-120 400zM256 1147l215 266h143l215 -266h-133l-153 133l-154 -133h-133zM307 512q0 -109 18.5 -182.5 t50.5 -119.5t75 -66.5t92 -20.5t92 20.5t74.5 66.5t50 119.5t18.5 182.5q0 106 -18.5 181t-50 121t-74.5 66.5t-92 20.5t-92 -20.5t-75 -66.5t-50.5 -121t-18.5 -181z" />
<glyph unicode="&#xf5;" horiz-adv-x="1085" d="M102 0zM102 512q0 268 120 400t321 132q100 0 181 -32.5t138.5 -99t89 -166t31.5 -234.5t-31.5 -234.5t-89 -166t-138.5 -99t-181 -32.5q-201 0 -321 132t-120 400zM247 1210q12 35 27.5 67t38.5 55.5t51.5 37.5t67.5 14t63.5 -14t44 -31.5t37 -32t39.5 -14.5 q23 0 41.5 12.5t30.5 27.5t17 29l5 13h19l82 -51q-23 -70 -66 -122t-119 -52q-39 0 -63.5 14.5t-44 31.5t-36.5 31.5t-40 14.5t-41 -13.5t-30.5 -28.5t-17.5 -28l-5 -12h-19zM307 512q0 -109 18.5 -182.5t50.5 -119.5t75 -66.5t92 -20.5t92 20.5t74.5 66.5t50 119.5 t18.5 182.5q0 106 -18.5 181t-50 121t-74.5 66.5t-92 20.5t-92 -20.5t-75 -66.5t-50.5 -121t-18.5 -181z" />
<glyph unicode="&#xf6;" horiz-adv-x="1085" d="M102 0zM102 512q0 268 120 400t321 132q100 0 181 -32.5t138.5 -99t89 -166t31.5 -234.5t-31.5 -234.5t-89 -166t-138.5 -99t-181 -32.5q-201 0 -321 132t-120 400zM245 1270q0 49 32 80.5t81 31.5t81 -31.5t32 -80.5t-32 -81t-81 -32t-81 32t-32 81zM307 512 q0 -109 18.5 -182.5t50.5 -119.5t75 -66.5t92 -20.5t92 20.5t74.5 66.5t50 119.5t18.5 182.5q0 106 -18.5 181t-50 121t-74.5 66.5t-92 20.5t-92 -20.5t-75 -66.5t-50.5 -121t-18.5 -181zM604 1270q0 49 31.5 80.5t81.5 31.5q49 0 80.5 -31.5t31.5 -80.5t-31.5 -81 t-80.5 -32t-81 32t-32 81z" />
<glyph unicode="&#xf7;" horiz-adv-x="962" d="M61 594v164h840v-164h-840zM358 328q0 53 35 88t88 35t88 -35t35 -88t-34.5 -88t-88.5 -35q-53 0 -88 35t-35 88zM358 1024q0 53 35 88t88 35t88 -35t35 -88t-34.5 -88t-88.5 -35q-53 0 -88 35t-35 88z" />
<glyph unicode="&#xf8;" horiz-adv-x="1085" d="M102 512q0 268 120 400t321 132q135 0 231 -57l25 37h164l-86 -129q51 -66 78.5 -161t27.5 -222q0 -135 -31.5 -234.5t-89 -166t-138.5 -99t-181 -32.5q-129 0 -232 57l-24 -37h-164l84 129q-104 135 -105 383zM307 512q0 -115 23 -199l352 535q-55 53 -139 53 q-49 0 -92 -20.5t-75 -66.5t-50.5 -121t-18.5 -181zM401 176q29 -29 65 -41t77 -12q49 0 92 20.5t74.5 66.5t50 119.5t18.5 182.5q0 115 -22 199z" />
<glyph unicode="&#xf9;" horiz-adv-x="1126" d="M154 0zM154 328v696h204v-696q0 -86 54.5 -140.5t140.5 -54.5q47 0 86 19.5t68 42.5q35 27 61 61v768h205v-1024h-144l-20 123h-10q-29 -41 -72 -72q-37 -29 -92 -50t-133 -21t-141.5 25.5t-109.5 71.5t-71.5 109.5t-25.5 141.5zM342 1416h226l92 -308h-133z" />
<glyph unicode="&#xfa;" horiz-adv-x="1126" d="M154 0zM154 328v696h204v-696q0 -86 54.5 -140.5t140.5 -54.5q47 0 86 19.5t68 42.5q35 27 61 61v768h205v-1024h-144l-20 123h-10q-29 -41 -72 -72q-37 -29 -92 -50t-133 -21t-141.5 25.5t-109.5 71.5t-71.5 109.5t-25.5 141.5zM485 1108l93 308h225l-184 -308h-134z " />
<glyph unicode="&#xfb;" horiz-adv-x="1126" d="M154 0zM154 328v696h204v-696q0 -86 54.5 -140.5t140.5 -54.5q47 0 86 19.5t68 42.5q35 27 61 61v768h205v-1024h-144l-20 123h-10q-29 -41 -72 -72q-37 -29 -92 -50t-133 -21t-141.5 25.5t-109.5 71.5t-71.5 109.5t-25.5 141.5zM277 1147l215 266h143l215 -266h-133 l-153 133l-154 -133h-133z" />
<glyph unicode="&#xfc;" horiz-adv-x="1126" d="M154 0zM154 328v696h204v-696q0 -86 54.5 -140.5t140.5 -54.5q47 0 86 19.5t68 42.5q35 27 61 61v768h205v-1024h-144l-20 123h-10q-29 -41 -72 -72q-37 -29 -92 -50t-133 -21t-141.5 25.5t-109.5 71.5t-71.5 109.5t-25.5 141.5zM266 1270q0 49 32 80.5t81 31.5t81 -31.5 t32 -80.5t-32 -81t-81 -32t-81 32t-32 81zM625 1270q0 49 31.5 80.5t81.5 31.5q49 0 80.5 -31.5t31.5 -80.5t-31.5 -81t-80.5 -32t-81 32t-32 81z" />
<glyph unicode="&#xfd;" horiz-adv-x="972" d="M31 0zM31 1024h205l225 -676q8 -23 15 -51.5t13 -52.5q8 -29 15 -60h8q4 31 12 60q6 25 13.5 53.5t13.5 50.5l186 676h205l-328 -1167q-35 -123 -120.5 -205t-217.5 -82q-47 0 -84.5 9t-64.5 22q-33 12 -55 30l51 133h20q14 -16 33 -26q16 -10 36.5 -17.5t43.5 -7.5 q53 0 95 41t59 103l41 143h-82zM409 1108l93 308h225l-184 -308h-134z" />
<glyph unicode="&#xfe;" horiz-adv-x="1105" d="M164 -410v1782l61 62h144v-451q29 16 65 31q31 10 72 20t88 10q88 0 162.5 -32.5t130 -99t86.5 -166t31 -234.5t-31 -234.5t-86.5 -166t-130 -99t-162.5 -32.5q-47 0 -88 9t-72 21q-37 12 -65 31v-451h-205zM369 164q25 -12 55 -21q27 -8 61.5 -14t77.5 -6q49 0 92 20.5 t75 66.5t50.5 119.5t18.5 182.5q0 106 -18.5 181t-50.5 121t-75 66.5t-92 20.5q-43 0 -77.5 -6t-61.5 -14q-31 -8 -55 -21v-696z" />
<glyph unicode="&#xff;" horiz-adv-x="972" d="M31 0zM31 1024h205l225 -676q8 -23 15 -51.5t13 -52.5q8 -29 15 -60h8q4 31 12 60q6 25 13.5 53.5t13.5 50.5l186 676h205l-328 -1167q-35 -123 -120.5 -205t-217.5 -82q-47 0 -84.5 9t-64.5 22q-33 12 -55 30l51 133h20q14 -16 33 -26q16 -10 36.5 -17.5t43.5 -7.5 q53 0 95 41t59 103l41 143h-82zM188 1270q0 49 32 80.5t81 31.5t81 -31.5t32 -80.5t-32 -81t-81 -32t-81 32t-32 81zM547 1270q0 49 31.5 80.5t81.5 31.5q49 0 80.5 -31.5t31.5 -80.5t-31.5 -81t-80.5 -32t-81 32t-32 81z" />
<glyph unicode="&#x152;" horiz-adv-x="1669" d="M113 717q0 193 37.5 329t112.5 222t186.5 126t257.5 40h901v-144h-594v-471h471v-143h-471v-533h594v-143h-901q-145 0 -257 40t-187 126t-112.5 222t-37.5 329zM317 717q0 -162 27 -271.5t76 -177t121.5 -96.5t165.5 -29h102v1147h-102q-92 0 -165 -28.5t-122 -96 t-76 -177t-27 -271.5z" />
<glyph unicode="&#x153;" horiz-adv-x="1679" d="M102 512q0 135 31 234.5t88.5 166t136 99t174.5 32.5q117 0 196 -46.5t132 -116.5q53 70 132 116.5t186 46.5q88 0 162.5 -32.5t130 -99t86 -166t30.5 -234.5v-31l-41 -41h-573q0 -162 68.5 -239.5t177.5 -77.5q47 0 87 14.5t70 30.5q37 20 68 47h20l72 -123 q-39 -33 -92 -57q-45 -23 -106.5 -39t-139.5 -16q-100 0 -188 39.5t-148 123.5q-55 -84 -134 -123.5t-196 -39.5q-96 0 -174.5 32.5t-136 99t-88.5 166t-31 234.5zM307 512q0 -109 17.5 -182.5t48 -119.5t71.5 -66.5t88 -20.5q45 0 85 19.5t71 62.5t49.5 112.5t20.5 171.5 v23v20q-2 100 -20.5 171t-49.5 115t-70.5 63.5t-85.5 19.5q-47 0 -88 -20.5t-71.5 -66.5t-48 -121t-17.5 -181zM973 584h409q0 84 -16 144t-44 98t-64.5 56.5t-79.5 18.5t-80 -18.5t-64.5 -56.5t-44 -98t-16.5 -144z" />
<glyph unicode="&#x178;" horiz-adv-x="1085" d="M0 0zM0 1434h215l287 -625q8 -20 15 -40.5t11 -39.5q6 -23 11 -43h8q4 20 10 43q4 18 10 38.5t17 41.5l286 625h215l-440 -963v-471h-205v471zM245 1680q0 49 32 80.5t81 31.5t81 -31.5t32 -80.5t-32 -81t-81 -32t-81 32t-32 81zM604 1680q0 49 31.5 80.5t81.5 31.5 q49 0 80.5 -31.5t31.5 -80.5t-31.5 -81t-80.5 -32t-81 32t-32 81z" />
<glyph unicode="&#x2c6;" horiz-adv-x="655" d="M41 1147l215 266h143l215 -266h-133l-153 133l-154 -133h-133z" />
<glyph unicode="&#x2dc;" horiz-adv-x="604" d="M20 1249q12 35 27.5 67t38.5 55.5t51.5 37.5t67.5 14t63.5 -14t44 -31.5t37 -32t39.5 -14.5q23 0 41.5 12.5t30.5 27.5t17 29l5 13h19l82 -51q-23 -70 -66 -122t-119 -52q-39 0 -63.5 14.5t-44 31.5t-36.5 31.5t-40 14.5t-41 -13.5t-30.5 -28.5t-17.5 -28l-5 -12h-19z " />
<glyph unicode="&#x2000;" horiz-adv-x="952" />
<glyph unicode="&#x2001;" horiz-adv-x="1905" />
<glyph unicode="&#x2002;" horiz-adv-x="952" />
<glyph unicode="&#x2003;" horiz-adv-x="1905" />
<glyph unicode="&#x2004;" horiz-adv-x="635" />
<glyph unicode="&#x2005;" horiz-adv-x="476" />
<glyph unicode="&#x2006;" horiz-adv-x="317" />
<glyph unicode="&#x2007;" horiz-adv-x="317" />
<glyph unicode="&#x2008;" horiz-adv-x="238" />
<glyph unicode="&#x2009;" horiz-adv-x="381" />
<glyph unicode="&#x200a;" horiz-adv-x="105" />
<glyph unicode="&#x2010;" horiz-adv-x="901" d="M61 594v164h779v-164h-779z" />
<glyph unicode="&#x2011;" horiz-adv-x="901" d="M61 594v164h779v-164h-779z" />
<glyph unicode="&#x2012;" horiz-adv-x="901" d="M61 594v164h779v-164h-779z" />
<glyph unicode="&#x2013;" d="M61 512v164h922v-164h-922z" />
<glyph unicode="&#x2014;" horiz-adv-x="1474" d="M61 512v164h1352v-164h-1352z" />
<glyph unicode="&#x2018;" horiz-adv-x="409" d="M82 1106q0 88 28.5 153.5t63.5 108.5q39 51 92 86l62 -72q-33 -25 -58 -53q-23 -25 -39 -55.5t-16 -65.5q47 0 80 -35t33 -88t-33 -87.5t-80 -34.5q-61 0 -97 36.5t-36 106.5z" />
<glyph unicode="&#x2019;" horiz-adv-x="409" d="M82 1034q31 25 55 53q23 25 40.5 56t17.5 65q-47 0 -80 35t-33 88t32.5 88t80.5 35q61 0 97 -37t36 -106q0 -90 -29 -154.5t-63 -107.5q-41 -51 -93 -86z" />
<glyph unicode="&#x201a;" horiz-adv-x="409" d="M82 102q0 53 32.5 88t80.5 35q61 0 97 -36.5t36 -106.5q0 -90 -29 -154.5t-63 -107.5q-41 -51 -93 -86l-61 71q31 25 55 54q23 25 40.5 55.5t17.5 65.5q-47 0 -80 34.5t-33 87.5z" />
<glyph unicode="&#x201c;" horiz-adv-x="737" d="M82 1106q0 88 28.5 153.5t63.5 108.5q39 51 92 86l62 -72q-33 -25 -58 -53q-23 -25 -39 -55.5t-16 -65.5q47 0 80 -35t33 -88t-33 -87.5t-80 -34.5q-61 0 -97 36.5t-36 106.5zM410 1106q0 88 28.5 153.5t63.5 108.5q39 51 92 86l61 -72q-33 -25 -57 -53 q-23 -25 -39 -55.5t-16 -65.5q47 0 79.5 -35t32.5 -88t-32.5 -87.5t-79.5 -34.5q-61 0 -97 36.5t-36 106.5z" />
<glyph unicode="&#x201d;" horiz-adv-x="737" d="M82 1034q31 25 55 53q23 25 40.5 56t17.5 65q-47 0 -80 35t-33 88t32.5 88t80.5 35q61 0 97 -37t36 -106q0 -90 -29 -154.5t-63 -107.5q-41 -51 -93 -86zM410 1034q31 25 55 53q23 25 40 56t17 65q-47 0 -79.5 35t-32.5 88t32.5 88t79.5 35q61 0 97 -37t36 -106 q0 -90 -28.5 -154.5t-63.5 -107.5q-41 -51 -92 -86z" />
<glyph unicode="&#x201e;" horiz-adv-x="737" d="M82 102q0 53 32.5 88t80.5 35q61 0 97 -36.5t36 -106.5q0 -90 -29 -154.5t-63 -107.5q-41 -51 -93 -86l-61 71q31 25 55 54q23 25 40.5 55.5t17.5 65.5q-47 0 -80 34.5t-33 87.5zM410 102q0 53 32.5 88t79.5 35q61 0 97 -36.5t36 -106.5q0 -90 -28.5 -154.5t-63.5 -107.5 q-41 -51 -92 -86l-61 71q31 25 55 54q23 25 40 55.5t17 65.5q-47 0 -79.5 34.5t-32.5 87.5z" />
<glyph unicode="&#x2022;" horiz-adv-x="757" d="M133 635q0 109 68.5 177.5t177.5 68.5t177.5 -68.5t68.5 -177.5t-69 -177.5t-177 -68.5q-109 0 -177.5 68.5t-68.5 177.5z" />
<glyph unicode="&#x2026;" horiz-adv-x="1187" d="M82 102q0 53 35 88t88 35t88 -34.5t35 -88.5q0 -53 -35 -87.5t-88 -34.5t-88 34.5t-35 87.5zM471 102q0 53 35 88t88 35t88 -34.5t35 -88.5q0 -53 -35 -87.5t-88 -34.5t-88 34.5t-35 87.5zM860 102q0 53 35 88t88 35t88 -34.5t35 -88.5q0 -53 -35 -87.5t-88 -34.5 t-88 34.5t-35 87.5z" />
<glyph unicode="&#x202f;" horiz-adv-x="381" />
<glyph unicode="&#x2039;" horiz-adv-x="675" d="M20 532l390 431h245l-389 -431l389 -430h-245z" />
<glyph unicode="&#x203a;" horiz-adv-x="696" d="M20 102l390 430l-390 431h246l389 -431l-389 -430h-246z" />
<glyph unicode="&#x205f;" horiz-adv-x="476" />
<glyph unicode="&#x20ac;" horiz-adv-x="1116" d="M20 532l21 123h133v123h-143l20 123h131q16 147 59.5 253t108 172.5t149.5 97t187 30.5q86 0 151.5 -17.5t112.5 -39.5q53 -25 94 -56l-71 -122h-21q-33 25 -69 45q-33 16 -78 31.5t-98 15.5q-59 0 -111.5 -21.5t-94.5 -70t-72 -126t-42 -192.5h451l-21 -123h-438v-123 h430l-21 -123h-401q14 -115 44 -193.5t74 -126.5t100.5 -68.5t121.5 -20.5q53 0 98 14.5t78 30.5q37 20 70 47h20l72 -123q-41 -33 -94 -57q-47 -23 -112.5 -39t-151.5 -16q-109 0 -197 30.5t-155.5 97t-111.5 171t-61 253.5h-162z" />
<glyph unicode="&#x2122;" horiz-adv-x="1740" d="M20 1300v134h676v-134h-245v-645h-185v645h-246zM778 655v779h195l215 -410q12 -23 18 -47q4 -12 8 -25h9q2 12 6 25l9 22.5t11 24.5l215 410h195v-779h-184v369v38.5t2 37.5q2 20 4 37h-11q-6 -18 -14 -39q-6 -16 -14 -36t-19 -38l-123 -236h-163l-123 236 q-10 18 -18.5 37.5t-14.5 36.5q-8 20 -14 39h-11q0 -16 2 -37q2 -16 3.5 -37t1.5 -39v-369h-185z" />
<glyph unicode="&#x25fc;" horiz-adv-x="1024" d="M0 0v1024h1024v-1024h-1024z" />
</font>
</defs>
</svg>
